Welcome Guest ( Log In | Register )

> Wolven - War Poisoned Cult (2022), Grindcore/Crust Punk (D7)
post Aug 1 2022, 16:34:58
Post #1

Правь статус, ####!111
**************
Group: Металариец
Posts: 5,704
Releases: 5222
From: Одесса
On Forums: 14 years 5 months
Thanks: 61180 time(s)
Ukraine


(IMG:http://metalarea.org/images/audiocovers/2022_Aug/acov_tid367838_thumb.jpg)

*Artist: Wolven
*Album: War Poisoned Cult
*Year: 2022
*Genre: Grindcore/Crust Punk
*Country: Belgium (IMG:http://metalarea.org/forum/style_images/flags/Belgium.png)
*Format: mp3@CBR320kbps
*Size: 77MB

Tracklist:
1. Immersed in Blood 03:27
2. Revolution Guillotine 04:20
3. Death Bringer 03:32
4. Division Kalashnikov 04:45
5. Toxic Red Poison 03:28
6. The Doomsday Machine 04:36
7. Blood for People 03:27
8. Raise the Horns of Chaos 04:05
******************************
Total playing time: 31:40



Extended info
Wolven's 3rd full album, entitled "War Poisoned Cult" presents you 8 highly intense and aggressive tracks as an antidote against today's state of the world.

Shitheads who want war for the sake of the military.
Idiot politicians who twist the law to take advantage of the chaos.
Shattering the faces of those cults.


Technical info
(IMG:http://metalarea.org/images/spectrogram/2022_Aug/d83fc4faab2c8cdc3ab38458bb92f272.png)
Input File: 01. Immersed in Hate.mp3
Channels : 2
Sample Rate : 44100
Precision : 16-bit
Duration : 00:03:28.05 = 9175137 samples = 15604 CDDA sectors
File Size : 8.33M
Bit Rate : 320k
Sample Encoding: MPEG audio (layer I, II or III)
Comments :
Title=Immersed in Hate
Artist=Wolven
Album=War Poisoned Cult
Tracknumber=1
Year=2022
Genre=Grindcore | Crust Punk



Register


Go to the top of the page
  Insert nick Quick quote
+Quote Post
 
Start new topic
Replies (1 - 3)
post Aug 5 2022, 05:14:44
Post #2

0%Tolerance
**************
Group: Металариец
Posts: 2,290
Releases: 0
On Forums: 10 years 2 months
Thanks: 463 time(s)
Unknown


Задорные посаны.
Go to the top of the page
  Insert nick Quick quote
+Quote Post
post Oct 2 2022, 22:37:52
Post #3

Мегаманьяк
***********
Group: Металариец
Posts: 1,592
Releases: 10
On Forums: 13 years 10 months
Thanks: 174 time(s)
Germany


Please, re-upload.
Go to the top of the page
  Insert nick Quick quote
+Quote Post
post Oct 3 2022, 08:01:16
Post #4

Добрый
**************
Group: Металариец
Posts: 5,618
Releases: 0
On Forums: 4 years 4 months
Thanks: 16710 time(s)
Russian Federation


75 mb/320 kbps
Register


Thanks:
Go to the top of the page
  Insert nick Quick quote
+Quote Post

Reply to this topicStart new topic
2 User(s) are reading this topic (2 Guests and 0 Anonymous Users)
0 Members:

 



- Lo-Fi Version Support form
Copyrights and abuse reports form
Time is now: 27th November 2022 - 02:29:37