Welcome Guest ( Log In | Register )

> Releases Upload / Добавление релизов

Добавить релиз тут / Click here to add release
Рекомендованные обменники / Recommended file shares

> Witchslayer - Witchslayer (2022), Heavy Metal
post Aug 4 2022, 14:46:10
Post #1

Правь статус, ####!111
**************
Group: Металариец
Posts: 29,934
Releases: 22028
From: Г.Харьков
On Forums: 10 years 3 months
Thanks: 458217 time(s)
Unknown


(IMG:https://metalarea.org/images/audiocovers/2022_Aug/acov_tid367937_thumb.jpg)

*Artist: Witchslayer
*Album: Witchslayer
*Year: 2022
*Genre: Heavy Metal
*Country: United States (IMG:https://metalarea.org/forum/style_images/flags/United%20States.png)
*Format: mp3@CBR320kbps
*Size: 120MB

Tracklist:
1. Witchslayer 03:44
2. Crypt 04:28
3. Salem Trials 03:12
4. Losin' It 05:35
5. I Don't Want to Die 05:09
6. Vixen 04:47
7. Seduction 04:32
8. Augury 05:35
9. Hang 'Em High 04:12
10. Baneful Ruin 04:05
11. Deceiver 06:50
******************************
Total playing time: 52:09



Extended info
Jeff Allen Vocals (1980-present, 2012-present, 2019-present)
Gabriel Anthony Drums (2019-present)
See also: David Shankle Group, GraveReign, ex-Battalion, ex-Insania, ex-Monster, ex-Premonition, ex-Radakka, ex-Tyrant's Reign, ex-Sgt. Roxx
Ken Mandat Guitars (2019-present)
See also: Damien Thorne, ex-Bug
Mick Lucid Bass (2021-present)
See also: Damien Thorne, Devil Land, GraveReign, Vicious Circle


Technical info
(IMG:https://metalarea.org/images/spectrogram/2022_Aug/4ff55605b7019959c428f53f06713bfc.png)
Input File: 08 - Augury.mp3
Channels : 2
Sample Rate : 44100
Precision : 16-bit
Duration : 00:05:35.25 = 14784569 samples = 25143.8 CDDA sectors
File Size : 13.5M
Bit Rate : 322k
Sample Encoding: MPEG audio (layer I, II or III)
Comments :
Title=Augury
Artist=Witchslayer
Album=Witchslayer
Tracknumber=8/11
Year=2022
Discnumber=1/1



Register


Go to the top of the page
  Insert nick Quick quote
+Quote Post
 
Start new topic
Replies (1 - 1)
post Aug 4 2022, 19:59:06
Post #2

MDM-Thrash Metal
**************
Group: Металариец
Posts: 11,324
Releases: 1567
From: Одесса
On Forums: 15 years 1 day
Thanks: 36919 time(s)
Ukraine


https://www.youtube.com/watch?v=Ufr6XGm2qMQ (FULL ALBUM)
https://www.youtube.com/watch?v=_F2FkGGfHZ8

Команда создана в 1980 и в этом году первый полноформатник! (IMG:style_emoticons/default/17.gif)
Go to the top of the page
  Insert nick Quick quote
+Quote Post

Reply to this topicStart new topic
1 User(s) are reading this topic (1 Guests and 0 Anonymous Users)
0 Members:

 



- Lo-Fi Version Support form
Copyrights and abuse reports form
Time is now: 11th August 2022 - 10:12:16