Welcome Guest ( Log In | Register )

> Releases Upload / Добавление релизов

Добавить релиз тут / Click here to add release
Рекомендованные обменники / Recommended file shares

 
Reply to this topicStart new topic
> Vantage Point - Zombie Train [ep] (2022), Heavy Metal (D5)
post Aug 4 2022, 14:52:52
Post #1

Serial Uploader
Group Icon
Group: V.I.P
Posts: 38,720
Releases: 36861
From: Lithuania
On Forums: 14 years 2 months
Thanks: 458355 time(s)
Lithuania


(IMG:https://metalarea.org/images/audiocovers/2022_Aug/acov_tid367939_thumb.jpg)

*Artist: Vantage Point
*Album: Zombie Train [ep]
*Year: 2022
*Genre: Heavy Metal
*Country: United Kingdom (IMG:https://metalarea.org/forum/style_images/flags/United%20Kingdom.png)
*Format: mp3@CBR320kbps
*Size: 38MB

Tracklist:
01. Zombie Train (Remix) 04:53
02. Freedom Train 03:08
03. Train Crash 04:42
04. Last Train from Hell (Remix) 03:13
******************************
Total playing time: 15:56

(IMG:https://metalarea.org/images/myspace.png)

Preview 3

Technical info
(IMG:https://metalarea.org/images/spectrogram/2022_Aug/edd0badca682053d12c634c8fb943c32.png)
Input File: 02 - Vantage Point, Richard Lock - Freedom Train.mp3
Channels : 2
Sample Rate : 44100
Precision : 16-bit
Duration : 00:03:07.91 = 8286919 samples = 14093.4 CDDA sectors
File Size : 7.94M
Bit Rate : 338k
Sample Encoding: MPEG audio (layer I, II or III)
Comments :
Title=Freedom Train
Artist=Richard Lock
Album=Zombie Train
Tracknumber=2/4
Year=2022
Genre=GetMetal.CLUB
Discnumber=1/1



Register


Go to the top of the page
  Insert nick Quick quote
+Quote Post

Reply to this topicStart new topic
1 User(s) are reading this topic (1 Guests and 0 Anonymous Users)
0 Members:

 



- Lo-Fi Version Support form
Copyrights and abuse reports form
Time is now: 11th August 2022 - 10:40:46