Welcome Guest ( Log In | Register )

> Releases Upload / Добавление релизов

Добавить релиз тут / Click here to add release
Рекомендованные обменники / Recommended file shares

 
Reply to this topicStart new topic
> Hautajaisyö - Ei Hauta Kysy Lupaa (2022), Death/Thrash Metal
post Aug 4 2022, 14:56:51
Post #1

Правь статус, ####!111
**************
Group: Металариец
Posts: 3,200
Releases: 1709
On Forums: 11 years 8 months
Thanks: 33373 time(s)
Russian Federation


(IMG:https://metalarea.org/images/audiocovers/2022_Aug/acov_tid367940_thumb.jpg)

*Artist: Hautajaisyö
*Album: Ei Hauta Kysy Lupaa
*Year: 2022
*Genre: Death/Thrash Metal
*Country: Finland (IMG:https://metalarea.org/forum/style_images/flags/Finland.png)
*Format: mp3@CBR320kbps
*Size: 85MB

Tracklist:
1.Kunnes hajoan 05:11
2.Harhaluulo 03:33
3.Askel 03:44
4.Kuuleeko kukaan 03:57
5.Kärsimys 03:40
6.Lohduton 05:03
7.Elämä lakkaa 04:32
8.Hiljaisuuden vankila 05:35
******************************
Total playing time: 35:15



Technical info
(IMG:https://metalarea.org/images/spectrogram/2022_Aug/0f7aa78a9d0973b0b57fa11a0e778ced.png)
Input File: 02. Harhaluulo.mp3
Channels : 2
Sample Rate : 44100
Precision : 16-bit
Duration : 00:03:33.46 = 9413630 samples = 16009.6 CDDA sectors
File Size : 8.70M
Bit Rate : 326k
Sample Encoding: MPEG audio (layer I, II or III)
Comments :
Title=Harhaluulo
Artist=Hautajaisyö
Album=Ei Hauta Kysy Lupaa
Tracknumber=02
Year=2022
Genre=Death/Thrash
Discnumber=1/1



Register

Register

Register


Go to the top of the page
  Insert nick Quick quote
+Quote Post

Reply to this topicStart new topic
2 User(s) are reading this topic (2 Guests and 0 Anonymous Users)
0 Members:

 



- Lo-Fi Version Support form
Copyrights and abuse reports form
Time is now: 11th August 2022 - 09:17:43