Welcome Guest ( Log In | Register )

> Releases Upload / Добавление релизов

Добавить релиз тут / Click here to add release
Рекомендованные обменники / Recommended file shares

> Bersereast - Bersereast (2019), Experimental Black Metal
post Aug 4 2022, 15:07:18
Post #1

Serial Uploader
Group Icon
Group: V.I.P
Posts: 38,720
Releases: 36861
From: Lithuania
On Forums: 14 years 2 months
Thanks: 458355 time(s)
Lithuania


(IMG:https://metalarea.org/images/audiocovers/2022_Aug/acov_tid367942_thumb.jpg)

*Artist: Bersereast
*Album: Bersereast
*Year: 2019
*Genre: Experimental Black Metal
*Country: Russian Federation (IMG:https://metalarea.org/forum/style_images/flags/Russian%20Federation.png)
*Format: mp3@CBR320kbps
*Size: 222MB

Tracklist:
1. Barbarian 03:06
2. Beast 03:19
3. Conqueror 03:40
4. Guardian 03:31
5. Eclipse 03:36
6. Victory 05:14
7. Berserk 05:31
8. Echo 03:39
9. Allegory 03:35
10. Sorrow 08:40
11. Frost 03:29
12. Glory 06:22
13. Prided 05:13
14. Demiurg 04:32
15. Grand 04:28
16. Torment 03:27
17. Memoryal 03:55
18. Hope 05:10
19. War 04:30
20. Brat 03:40
21. Within 04:11
22. Defender 03:11
******************************
Total playing time: 1:35:59




Technical info
(IMG:https://metalarea.org/images/spectrogram/2022_Aug/de2150a4087a2312e2b6a5b2c7320270.png)
Input File: 02. Beast.mp3
Channels : 2
Sample Rate : 44100
Precision : 16-bit
Duration : 00:03:19.53 = 8799449 samples = 14965 CDDA sectors
File Size : 8.09M
Bit Rate : 324k
Sample Encoding: MPEG audio (layer I, II or III)
Comments :
Title=Beast
Artist=Bersereast
Album=Bersereast
Tracknumber=2
Year=2019



Register


Go to the top of the page
  Insert nick Quick quote
+Quote Post
 
Start new topic
Replies (1 - 1)
post Aug 5 2022, 04:57:44
Post #2

Маньяк
**********
Group: Металариец
Posts: 1,344
Releases: 0
On Forums: 13 years 5 months
Thanks: 435 time(s)
South Korea


Thank you, necroscum!

Also, for those who are interested in FLAC (as well as 320 kbps and other types), the release is currently downloadable free on 'name your price' basis through the BandCamp page that necroscum kindly posted above.

Thanks to the band and necroscum!


Thanks:
(1) stormhatt,
Go to the top of the page
  Insert nick Quick quote
+Quote Post

Reply to this topicStart new topic
2 User(s) are reading this topic (2 Guests and 0 Anonymous Users)
0 Members:

 



- Lo-Fi Version Support form
Copyrights and abuse reports form
Time is now: 11th August 2022 - 09:42:17