Welcome Guest ( Log In | Register )

> Releases Upload / Добавление релизов

Добавить релиз тут / Click here to add release
Рекомендованные обменники / Recommended file shares

 
Reply to this topicStart new topic
> Sent To Destroy - Destroyer [ep] (2014), Thrash Metal
post Aug 4 2022, 15:35:59
Post #1

Правь статус, 616
**************
Group: Металариец
Posts: 7,775
Releases: 6141
From: 55°35’N 38°08’E
On Forums: 14 years 1 month
Thanks: 112763 time(s)
Russian Federation


(IMG:https://metalarea.org/images/audiocovers/2022_Aug/acov_tid367945_thumb.jpg)

*Artist: Sent To Destroy
*Album: Destroyer [ep]
*Year: 2014
*Genre: Thrash Metal
*Country: Argentina (IMG:https://metalarea.org/forum/style_images/flags/Argentina.png)
*Format: mp3@CBR320kbps
*Size: 44MB

Tracklist:
1. Thrashing Crew 04:05
2. Reptilian Bloodlines 06:00
3. Capitalism Never Lose 04:12
4. Strange Aggression 03:03
******************************
Total playing time: 17:20



(IMG:https://metalarea.org/images/youtube.png)

Technical info
(IMG:https://metalarea.org/images/spectrogram/2022_Aug/25373042d5cccf4ae1fa984a4fdc8a25.png)
Input File: 01 Thrashing Crew.mp3
Channels : 2
Sample Rate : 44100
Precision : 16-bit
Duration : 00:04:05.15 = 10811071 samples = 18386.2 CDDA sectors
File Size : 9.94M
Bit Rate : 324k
Sample Encoding: MPEG audio (layer I, II or III)
Comments :
Title=Thrashing Crew
Artist=Sent To Destroy
Album=Destroyer
Tracknumber=1
Year=2014
Genre=Thrash Metal



Register


Go to the top of the page
  Insert nick Quick quote
+Quote Post

Reply to this topicStart new topic
1 User(s) are reading this topic (1 Guests and 0 Anonymous Users)
0 Members:

 



- Lo-Fi Version Support form
Copyrights and abuse reports form
Time is now: 11th August 2022 - 08:50:00