Welcome Guest ( Log In | Register )

> Releases Upload / Добавление релизов

Добавить релиз тут / Click here to add release
Рекомендованные обменники / Recommended file shares

> First Days Of Humanity - Wounds Leaking Coagulated Sludge [ep] (2022), Goregrind (D6)
post Aug 4 2022, 15:41:23
Post #1

Serial Uploader
Group Icon
Group: V.I.P
Posts: 38,720
Releases: 36861
From: Lithuania
On Forums: 14 years 2 months
Thanks: 458355 time(s)
Lithuania


(IMG:https://metalarea.org/images/audiocovers/2022_Aug/acov_tid367946_thumb.jpg)

*Artist: First Days Of Humanity
*Album: Wounds Leaking Coagulated Sludge [ep]
*Year: 2022
*Genre: Goregrind
*Country: United States (IMG:https://metalarea.org/forum/style_images/flags/United%20States.png)
*Format: mp3@CBR320kbps
*Size: 22MB

Tracklist:
1. Sinking A Knife Into Your Anus 01:25
2. Overflowing Necrotic Trunk 00:26
3. Cavities Filled With Vomited Excrement 00:25
4. Pleasures Of The Cemetery 00:30
5. Erection Covered In Virulent Mucus 00:35
6. Gargling Boiling Urine 00:27
7. Maggots Bursting Forth During Ejaculation 00:50
8. Twisting A Needle Inside You 00:41
9. Submerged In Carborane Acid 00:30
10. An Eruption Of Bile And Semen 00:39
11. Draining Pus Into Your Mouth 00:38
12. Slurping Gangrenous Sewage 00:36
13. Bowels Sewn Shut 00:48
******************************
Total playing time: 8:30



Technical info
(IMG:https://metalarea.org/images/spectrogram/2022_Aug/5b641fda26b15ea9b5307c9a38cdb4a7.png)
Input File: 03. Cavities Filled with Vomited Excrement.mp3
Channels : 2
Sample Rate : 44100
Precision : 16-bit
Duration : 00:00:25.55 = 1126711 samples = 1916.18 CDDA sectors
File Size : 1.22M
Bit Rate : 381k
Sample Encoding: MPEG audio (layer I, II or III)
Comments :
Title=Cavities Filled with Vomited Excrement
Artist=First Days of Humanity
Album=Wounds Leaking Coagulated Sludge
Tracknumber=3
Year=2022



Register


Thanks:
Go to the top of the page
  Insert nick Quick quote
+Quote Post
 
Start new topic
Replies (1 - 2)
post Aug 4 2022, 17:32:24
Post #2

Правь статус, ####!111
**************
Group: Металариец
Posts: 2,103
Releases: 0
On Forums: 13 years 5 months
Thanks: 852 time(s)
Antarctica


Очень оригинально назвались. Видать, долго думали.
EP представляет собой один трек, повторяющийся 13 раз под новыми названиями. Да, основной креатив здесь ушёл в названия.
Звук сырой, как на Forensick-е всем известных мексиканцев, но те зажгли, а здесь абсолютно пустой шум.
Go to the top of the page
  Insert nick Quick quote
+Quote Post
post Aug 4 2022, 20:28:59
Post #3

Два Литра
**
Group: Завсегдатай
Posts: 183
Releases: 0
On Forums: 1 year 8 months
Thanks: 93 time(s)
Germany


(IMG:style_emoticons/default/normal_Homerdisgust3.png)
Go to the top of the page
  Insert nick Quick quote
+Quote Post

Reply to this topicStart new topic
2 User(s) are reading this topic (2 Guests and 0 Anonymous Users)
0 Members:

 



- Lo-Fi Version Support form
Copyrights and abuse reports form
Time is now: 11th August 2022 - 10:38:55