Welcome Guest ( Log In | Register )

> Releases Upload / Добавление релизов

Добавить релиз тут / Click here to add release
Рекомендованные обменники / Recommended file shares

 
Reply to this topicStart new topic
> First Days Of Humanity - Lithic [ep] (2022), Goregrind (D7)
post Aug 4 2022, 15:54:16
Post #1

Serial Uploader
Group Icon
Group: V.I.P
Posts: 38,720
Releases: 36861
From: Lithuania
On Forums: 14 years 2 months
Thanks: 458350 time(s)
Lithuania


(IMG:https://metalarea.org/images/audiocovers/2022_Aug/acov_tid367947_thumb.jpg)

*Artist: First Days Of Humanity
*Album: Lithic [ep]
*Year: 2022
*Genre: Goregrind
*Country: United States (IMG:https://metalarea.org/forum/style_images/flags/United%20States.png)
*Format: mp3@CBR320kbps
*Size: 17MB

Tracklist:
1. Annihilated Cranial Remains 01:07
2. Carnivorous Overkill 01:01
3. Butchered With Sharpened Rocks 00:48
4. Fossilized Corpse 00:51
5. Cannibalistic Fetish Ritual 01:00
6. Primitive Mutilation 00:53
7. Rotting Bone Cleaver 00:52
8. Defleshing Pit 00:45
******************************
Total playing time: 7:17


(IMG:https://metalarea.org/images/youtube.png)

Technical info
(IMG:https://metalarea.org/images/spectrogram/2022_Aug/06e2a947e572b13c79682ed5d7cf4c38.png)
Input File: 02. Carnivorous Overkill.mp3
Channels : 2
Sample Rate : 44100
Precision : 16-bit
Duration : 00:01:01.16 = 2696980 samples = 4586.7 CDDA sectors
File Size : 2.57M
Bit Rate : 336k
Sample Encoding: MPEG audio (layer I, II or III)
Comments :
Title=Carnivorous Overkill
Artist=First Days of Humanity
Album=Lithic
Tracknumber=2
Year=2022



Register


Go to the top of the page
  Insert nick Quick quote
+Quote Post

Reply to this topicStart new topic
2 User(s) are reading this topic (2 Guests and 0 Anonymous Users)
0 Members:

 



- Lo-Fi Version Support form
Copyrights and abuse reports form
Time is now: 11th August 2022 - 08:33:49