Welcome Guest ( Log In | Register )

> Releases Upload / Добавление релизов

Добавить релиз тут / Click here to add release
Рекомендованные обменники / Recommended file shares

 
Reply to this topicStart new topic
> First Days Of Humanity - Pixel Death 3 [ep] (2022), Goregrind (D8)
post Aug 4 2022, 16:10:26
Post #1

Serial Uploader
Group Icon
Group: V.I.P
Posts: 38,720
Releases: 36861
From: Lithuania
On Forums: 14 years 2 months
Thanks: 458350 time(s)
Lithuania


(IMG:https://metalarea.org/images/audiocovers/2022_Aug/acov_tid367948_thumb.jpg)

*Artist: First Days Of Humanity
*Album: Pixel Death 3 [ep]
*Year: 2022
*Genre: Goregrind
*Country: United States (IMG:https://metalarea.org/forum/style_images/flags/United%20States.png)
*Format: mp3@CBR320kbps
*Size: 30MB

Tracklist:
1. Death Simulation 02:27
2. Necrowizard 01:46
3. Lord Of Ooze 01:56
4. Cyborg Commando 03:15
5. Brain Vats 01:59
6. Neon Annihilation 01:21
******************************
Total playing time: 12:44


(IMG:https://metalarea.org/images/youtube.png)

Technical info
(IMG:https://metalarea.org/images/spectrogram/2022_Aug/21d79dafd03587789bd8e306d967d9a5.png)
Input File: 02. Necrowizard.mp3
Channels : 2
Sample Rate : 44100
Precision : 16-bit
Duration : 00:01:46.19 = 4683111 samples = 7964.47 CDDA sectors
File Size : 4.47M
Bit Rate : 337k
Sample Encoding: MPEG audio (layer I, II or III)
Comments :
Title=Necrowizard
Artist=First Days of Humanity
Album=Pixel Death 3
Tracknumber=2
Year=2022



Register


Thanks:
Go to the top of the page
  Insert nick Quick quote
+Quote Post

Reply to this topicStart new topic
2 User(s) are reading this topic (2 Guests and 0 Anonymous Users)
0 Members:

 



- Lo-Fi Version Support form
Copyrights and abuse reports form
Time is now: 11th August 2022 - 08:54:14