Welcome Guest ( Log In | Register )

> Releases Upload / Добавление релизов

Добавить релиз тут / Click here to add release
Рекомендованные обменники / Recommended file shares

 
Reply to this topicStart new topic
> Sent To Destroy - Thrashing The Asylum [ep] (2017), Thrash Metal
post Aug 4 2022, 16:59:48
Post #1

Правь статус, 616
**************
Group: Металариец
Posts: 7,775
Releases: 6141
From: 55°35’N 38°08’E
On Forums: 14 years 1 month
Thanks: 112763 time(s)
Russian Federation


(IMG:https://metalarea.org/images/audiocovers/2022_Aug/acov_tid367951_thumb.jpg)

*Artist: Sent To Destroy
*Album: Thrashing The Asylum [ep]
*Year: 2017
*Genre: Thrash Metal
*Country: Argentina (IMG:https://metalarea.org/forum/style_images/flags/Argentina.png)
*Format: mp3@CBR320kbps
*Size: 41MB

Tracklist:
1. Razed Land 05:10
2. Bang Your Head (or Die) 03:19
3. Thrashing Your Life 03:51
4. Paranoiaphobia 05:00
******************************
Total playing time: 17:20



(IMG:https://metalarea.org/images/youtube.png)

Technical info
(IMG:https://metalarea.org/images/spectrogram/2022_Aug/096a489cac1c3783974ac3eaf2b59777.png)
Input File: 02 Bang Your Head (Or Die).mp3
Channels : 2
Sample Rate : 44100
Precision : 16-bit
Duration : 00:03:18.75 = 8765007 samples = 14906.5 CDDA sectors
File Size : 8.19M
Bit Rate : 330k
Sample Encoding: MPEG audio (layer I, II or III)
Comments :
Title=Bang Your Head (Or Die)
Artist=Sent To Destroy
Album=Thrashing The Asylum
Tracknumber=2
Year=2017
Genre=Thrash Metal



Register


Go to the top of the page
  Insert nick Quick quote
+Quote Post

Reply to this topicStart new topic
1 User(s) are reading this topic (1 Guests and 0 Anonymous Users)
0 Members:

 



- Lo-Fi Version Support form
Copyrights and abuse reports form
Time is now: 11th August 2022 - 09:06:36