Welcome Guest ( Log In | Register )

> Releases Upload / Добавление релизов

Добавить релиз тут / Click here to add release
Рекомендованные обменники / Recommended file shares

> Phrenesy - Fears Apocalypse (2022), Thrash Metal
post Aug 4 2022, 17:11:59
Post #1

Group: Дух
Posts: 18
Releases: 18
On Forums: 1 month 4 days
Thanks: 580 time(s)
Unknown


(IMG:https://metalarea.org/images/audiocovers/2022_Aug/acov_tid367952_thumb.jpg)

*Artist: Phrenesy
*Album: Fears Apocalypse
*Year: 2022
*Genre: Thrash Metal
*Country: Brazil (IMG:https://metalarea.org/forum/style_images/flags/Brazil.png)
*Format: mp3@CBR320kbps
*Size: 101MB

Tracklist:
01. Fears Apocalypse 04:44
02. Bring It On 03:27
03. Fuck The Pain 04:11
04. Lost Generation 03:31
05. Mistakes 03:56
06. My Hate Is Gonna Speak For Me 04:34
07. Vultures 04:40
08. The Truth Is All There 04:24
09. The Party Won't Stop 04:15
10. War For Beer 03:37
******************************
Total playing time: 41:19



Technical info
(IMG:https://metalarea.org/images/spectrogram/2022_Aug/c4004253c25862d82a42103d49b6d021.png)
Input File: 03 - Fuck The Pain.mp3
Channels : 2
Sample Rate : 44100
Precision : 16-bit
Duration : 00:04:11.37 = 11085285 samples = 18852.5 CDDA sectors
File Size : 10.7M
Bit Rate : 341k
Sample Encoding: MPEG audio (layer I, II or III)
Comments :
Title=Fuck The Pain
Artist=Phrenesy
Album=Fears Apocalypse
Tracknumber=3/10
Year=2022
Genre=Smak
Discnumber=1/1



Register


Go to the top of the page
  Insert nick Quick quote
+Quote Post
 
Start new topic
Replies (1 - 5)
post Aug 4 2022, 17:56:07
Post #2

Common dweller of hell
**************
Group: Металариец
Posts: 4,340
Releases: 12
From: Dnipro
On Forums: 14 years 4 weeks
Thanks: 1719 time(s)
Ukraine




Go to the top of the page
  Insert nick Quick quote
+Quote Post
post Aug 5 2022, 07:24:14
Post #3

Семь Литров
*******
Group: Металариец
Posts: 721
Releases: 0
On Forums: 13 years 1 month
Thanks: 182 time(s)
Ukraine


Зачётній музон!!!спасибо,под настроение само то!!!
Go to the top of the page
  Insert nick Quick quote
+Quote Post
post Aug 5 2022, 07:35:36
Post #4

Четыре Литра
****
Group: Металариец
Posts: 338
Releases: 0
From: TheМля
On Forums: 15 years 10 months
Thanks: 108 time(s)
Belarus


Превью понравилось, бодро.
Go to the top of the page
  Insert nick Quick quote
+Quote Post
post Aug 5 2022, 22:28:35
Post #5

Правь статус, ####!111
**************
Group: Металариец
Posts: 2,103
Releases: 0
On Forums: 13 years 5 months
Thanks: 852 time(s)
Antarctica


Неплохо, но маловато цепляющих моментов, соляки хорошие, вокал под Testament, 6/10.
Go to the top of the page
  Insert nick Quick quote
+Quote Post
post Aug 7 2022, 20:30:32
Post #6

Семь Литров
*******
Group: Металариец
Posts: 721
Releases: 0
On Forums: 13 years 1 month
Thanks: 182 time(s)
Ukraine


По первым песням прослушивания-ощущаешь что лучше трэша и не может быть,всё просто супер сыгранно на ура по всем канонам жанра но.к середине утомлять начинают похожестью и быстрым ритмом надо было и среднетемповые песни написать-а так спасибо за хороший альбом-класс!!!!!!!
Go to the top of the page
  Insert nick Quick quote
+Quote Post

Reply to this topicStart new topic
1 User(s) are reading this topic (1 Guests and 0 Anonymous Users)
0 Members:

 



- Lo-Fi Version Support form
Copyrights and abuse reports form
Time is now: 11th August 2022 - 09:18:57