Welcome Guest ( Log In | Register )

> Releases Upload / Добавление релизов

Добавить релиз тут / Click here to add release
Рекомендованные обменники / Recommended file shares

 
Reply to this topicStart new topic
> Age Of Darkness - As Essence Left Your Soul (2022), Black/Death Metal
post Aug 4 2022, 17:29:22
Post #1

Правь статус, ####!111
**************
Group: Металариец
Posts: 3,200
Releases: 1709
On Forums: 11 years 8 months
Thanks: 33373 time(s)
Russian Federation


(IMG:https://metalarea.org/images/audiocovers/2022_Aug/acov_tid367955_thumb.jpg)

*Artist: Age Of Darkness
*Album: As Essence Left Your Soul
*Year: 2022
*Genre: Black/Death Metal
*Country: United States (IMG:https://metalarea.org/forum/style_images/flags/United%20States.png)
*Format: mp3@CBR320kbps
*Size: 85MB

Tracklist:
1.Funeral March/6ft Under 02:47
2.Black Knight 02:43
3.Madness 04:25
4.Age of Darkness 03:57
5.Mental Crisis 05:38
6.Venomous 04:03
7.Reconquer the Land 03:39
8.Paralysis 03:28
9.Ritual & Misery 06:31
******************************
Total playing time: 37:11



Technical info
(IMG:https://metalarea.org/images/spectrogram/2022_Aug/429fd2bae7ec6c899f8f944454adbac6.png)
Input File: 02 - Black Knight.mp3
Channels : 2
Sample Rate : 44100
Precision : 16-bit
Duration : 00:02:43.07 = 7191167 samples = 12229.9 CDDA sectors
File Size : 6.95M
Bit Rate : 341k
Sample Encoding: MPEG audio (layer I, II or III)
Comments :
Title=Black Knight
Artist=Age of Darkness
Album=As Essence Left Your Soul
Tracknumber=02
Year=2022
Discnumber=01



Register


Go to the top of the page
  Insert nick Quick quote
+Quote Post

Reply to this topicStart new topic
2 User(s) are reading this topic (2 Guests and 0 Anonymous Users)
0 Members:

 



- Lo-Fi Version Support form
Copyrights and abuse reports form
Time is now: 11th August 2022 - 09:22:41