Welcome Guest ( Log In | Register )

> Releases Upload / Добавление релизов

Добавить релиз тут / Click here to add release
Рекомендованные обменники / Recommended file shares

 
Reply to this topicStart new topic
> Exodus - The Skyroom Buffalo NY [bootleg] (1989), Thrash Metal (D)
post Aug 4 2022, 17:36:42
Post #1

Мегаманьяк
***********
Group: Металариец
Posts: 1,565
Releases: 302
On Forums: 3 years 6 months
Thanks: 4587 time(s)
Canada


(IMG:https://metalarea.org/images/audiocovers/2022_Aug/acov_tid367957_thumb.JPG)

*Artist: Exodus
*Album: The Skyroom Buffalo NY [bootleg]
*Year: 1989
*Genre: Thrash Metal
*Country: United States (IMG:https://metalarea.org/forum/style_images/flags/United%20States.png)
*Format: mp3@CBR320kbps
*Size: 158MB

Tracklist:
1. Intro 00:38
2. Last Act of Defiance 04:05
3. Fabulous Disaster 05:13
4. And Then There Were None 04:54
5. Corruption 06:01
6. Chemi-kill 05:47
7. 'Til Death Do Us Part 04:59
8. The Toxic Waltz 04:37
9. Cajun Hell 06:36
10. Piranha 04:36
11. Verbal Razors 05:01
12. Brain Dead 04:24
13. Like Father Like Son 07:53
14. Exodus 04:25
******************************
Total playing time: 1:09:09

Extended info
Exodus 1989-06-11 The Skyroom Buffalo NY @320

https://www.metal-archives.com/bands/Exodus/173

This show is another from the collection of "Smores" who is working to get many of his old tapes transferred and uploaded for others to enjoy. These shows are seeing the light of day after all of these years- some for the first time since they were taped!
Transfer and mastering by }{eywood


Thanks to the original ripper and uploader, DIME torrents, and s-h-a-w-n from HMR forum.

Exodus
The Skyroom
Buffalo, NY
June 11, 1989


Technical info
(IMG:https://metalarea.org/images/spectrogram/2022_Aug/3e431be2131335cce518d719de64088f.png)
Input File: 10 Piranha.mp3
Channels : 2
Sample Rate : 48000
Precision : 16-bit
Duration : 00:04:36.46 = 13269888 samples ~ 20734.2 CDDA sectors
File Size : 11.1M
Bit Rate : 320k
Sample Encoding: MPEG audio (layer I, II or III)
Comments :
Title=Piranha
Artist=Exodus
Album=The Skyroom Buffalo NY June 11 1989 (Bootleg)
Tracknumber=10
Year=1989



Register


Go to the top of the page
  Insert nick Quick quote
+Quote Post

Reply to this topicStart new topic
1 User(s) are reading this topic (1 Guests and 0 Anonymous Users)
0 Members:

 



- Lo-Fi Version Support form
Copyrights and abuse reports form
Time is now: 11th August 2022 - 10:27:35