Welcome Guest ( Log In | Register )

> Releases Upload / Добавление релизов

Добавить релиз тут / Click here to add release
Рекомендованные обменники / Recommended file shares

 
Reply to this topicStart new topic
> Costigan - The Universe Within (2000), Instrumental/Shred Metal
post Aug 4 2022, 17:46:28
Post #1

Мегаманьяк
***********
Group: Металариец
Posts: 1,565
Releases: 302
On Forums: 3 years 6 months
Thanks: 4587 time(s)
Canada


(IMG:https://metalarea.org/images/audiocovers/2022_Aug/acov_tid367958_thumb.jpg)

*Artist: Costigan
*Album: The Universe Within
*Year: 2000
*Genre: Instrumental/Shred Metal
*Country: Canada (IMG:https://metalarea.org/forum/style_images/flags/Canada.png)
*Format: mp3@CBR256kbps
*Size: 88MB

Tracklist:
1. Cellulite 3:29
2. Friday 4:15
3. River Red 5:00
4. Clot 3:45
5. R.I.P. 5:10
6. Bass Chase-Counted Out 5:00
7. Amber Dawn 1:38
8. Blue Horizon 5:01
9. Rye Whiskey Stomp 2:33
10. Forever 5:35
11. Dogma 4:08
12. Twang Bang 2:33
******************************
Total playing time: 48:07

Extended info
recorded in Lethbridge, Alberta.


Technical info
(IMG:https://metalarea.org/images/spectrogram/2022_Aug/62a545cfd69696c821647c380a32d41c.png)
Input File: 02 - Friday.MP3
Channels : 2
Sample Rate : 44100
Precision : 16-bit
Duration : 00:04:15.85 = 11282809 samples = 19188.5 CDDA sectors
File Size : 8.19M
Bit Rate : 256k
Sample Encoding: MPEG audio (layer I, II or III)
Comments :
Title=Friday
Artist=Costigan (Boyd) (Canada)
Album=The Universe Within
Tracknumber=2
Year=2000
Genre=Fusion/Shred/Instrumental Rock



Register


Go to the top of the page
  Insert nick Quick quote
+Quote Post

Reply to this topicStart new topic
2 User(s) are reading this topic (2 Guests and 0 Anonymous Users)
0 Members:

 



- Lo-Fi Version Support form
Copyrights and abuse reports form
Time is now: 11th August 2022 - 10:04:03