Welcome Guest ( Log In | Register )

> Releases Upload / Добавление релизов

Добавить релиз тут / Click here to add release
Рекомендованные обменники / Recommended file shares

 
Reply to this topicStart new topic
> Breaker - Blood Money [single] (1983), Heavy Metal (D)
post Aug 4 2022, 17:56:36
Post #1

Мегаманьяк
***********
Group: Металариец
Posts: 1,565
Releases: 302
On Forums: 3 years 6 months
Thanks: 4587 time(s)
Canada


(IMG:https://metalarea.org/images/audiocovers/2022_Aug/acov_tid367959_thumb.jpg)

*Artist: Breaker
*Album: Blood Money [single]
*Year: 1983
*Genre: Heavy Metal
*Country: United States (IMG:https://metalarea.org/forum/style_images/flags/United%20States.png)
*Format: mp3@CBR320kbps
*Size: 35MB

Tracklist:
1. Blood Money 03:50
2. Afraid of the Dark 05:27
******************************
Total playing time: 9:17

Extended info
American heavy metal band from Cleveland, Ohio formed in 1982.

Thanks to the original ripper and uploader,

probably was

http://www.goodbadmusic.com/2010/03/28/breaker-blood-money-cw-afraid-of-the-dark-7-selfproduced-usa-1983/

and

re-uploaded by hi50metalmaniac on the HMR forum.

https://www.metal-archives.com/albums/Breaker/Blood_Money_-_Afraid_of_the_Dark/39909

https://www.discogs.com/release/5242657-Breaker-Blood-Money-Afraid-Of-The-Dark-

http://www.metallian.com/breaker.php

https://www.discogs.com/artist/1010902-Breaker-2

https://www.metal-archives.com/bands/Breaker/254

Jim Hamar - Vocals
Don Depew - Guitar
Michael Klein - Guitar
Ian Shipley - Bass
Mark Klein - Drums


Technical info
(IMG:https://metalarea.org/images/spectrogram/2022_Aug/ff2df8548d25c6fbbf1bf597ac4ca2b9.png)
Input File: 01. Blood Money.mp3
Channels : 2
Sample Rate : 44100
Precision : 16-bit
Duration : 00:03:50.04 = 10144676 samples = 17252.9 CDDA sectors
File Size : 11.3M
Bit Rate : 392k
Sample Encoding: MPEG audio (layer I, II or III)
Comments :
Title=Blood Money
Artist=Breaker
Album=Blood Money / Afraid of the Dark 7"
Tracknumber=1/2
Year=1983
Genre=Heavy Metal



Register


Go to the top of the page
  Insert nick Quick quote
+Quote Post

Reply to this topicStart new topic
2 User(s) are reading this topic (2 Guests and 0 Anonymous Users)
0 Members:

 



- Lo-Fi Version Support form
Copyrights and abuse reports form
Time is now: 11th August 2022 - 10:17:56