Welcome Guest ( Log In | Register )

> Releases Upload / Добавление релизов

Добавить релиз тут / Click here to add release
Рекомендованные обменники / Recommended file shares

 
Reply to this topicStart new topic
> Emasculator - Depraved Disfigurement [ep] (2022), Brutal Death Metal
post Aug 5 2022, 03:54:45
Post #1

Правь статус, ####!111
**************
Group: Металариец
Posts: 3,200
Releases: 1709
On Forums: 11 years 8 months
Thanks: 33373 time(s)
Russian Federation


(IMG:https://metalarea.org/images/audiocovers/2022_Aug/acov_tid367961_thumb.jpg)

*Artist: Emasculator
*Album: Depraved Disfigurement [ep]
*Year: 2022
*Genre: Brutal Death Metal
*Country: International (IMG:https://metalarea.org/forum/style_images/flags/International.png)
*Format: mp3@CBR320kbps
*Size: 20MB

Tracklist:
1.Depraved Disfigurement 04:10
2.Age of the Goddess 04:00
******************************
Total playing time: 8:10



Extended info
Czech/USA


Technical info
(IMG:https://metalarea.org/images/spectrogram/2022_Aug/20e4ab78faac417ddbd2b1419926f663.png)
Input File: 01 - Depraved Disfigurement.mp3
Channels : 2
Sample Rate : 44100
Precision : 16-bit
Duration : 00:04:10.61 = 11051857 samples = 18795.7 CDDA sectors
File Size : 10.1M
Bit Rate : 322k
Sample Encoding: MPEG audio (layer I, II or III)
Comments :
Title=Depraved Disfigurement
Artist=Emasculator
Album=Depraved Disfigurement
Tracknumber=01
Year=2022
Genre=Brutal Death Metal



Register


Go to the top of the page
  Insert nick Quick quote
+Quote Post

Reply to this topicStart new topic
1 User(s) are reading this topic (1 Guests and 0 Anonymous Users)
0 Members:

 



- Lo-Fi Version Support form
Copyrights and abuse reports form
Time is now: 11th August 2022 - 10:17:15