Welcome Guest ( Log In | Register )

> Releases Upload / Добавление релизов

Добавить релиз тут / Click here to add release
Рекомендованные обменники / Recommended file shares

 
Reply to this topicStart new topic
> Paezor - Ascension Of The Beast (2022), Black Metal (D4)
post Aug 5 2022, 04:44:25
Post #1

Правь статус, ####!111
**************
Group: Металариец
Posts: 3,200
Releases: 1709
On Forums: 11 years 8 months
Thanks: 33373 time(s)
Russian Federation


(IMG:https://metalarea.org/images/audiocovers/2022_Aug/acov_tid367962_thumb.jpg)

*Artist: Paezor
*Album: Ascension Of The Beast
*Year: 2022
*Genre: Black Metal
*Country: United States (IMG:https://metalarea.org/forum/style_images/flags/United%20States.png)
*Format: mp3@CBR320kbps
*Size: 78MB

Tracklist:
01.Graveyard of Empires 06:30
02.Weeping Decay 04:46
03.Blood Oath Eclipse 05:52
04.Vampire State Building 01:13
05.Demonic Repossession 05:42
06.Ascention of the Beast 06:58
07.Entropy in Death 02:51
******************************
Total playing time: 33:52

Preview 1

Technical info
(IMG:https://metalarea.org/images/spectrogram/2022_Aug/25deaf85bb9f5eca6e1bee64b37a0c42.png)
Input File: 02 - Weeping Decay.mp3
Channels : 2
Sample Rate : 44100
Precision : 16-bit
Duration : 00:04:45.69 = 12599105 samples = 21427 CDDA sectors
File Size : 11.6M
Bit Rate : 324k
Sample Encoding: MPEG audio (layer I, II or III)
Comments :
Title=Weeping Decay
Artist=Paezor
Album=Ascension of the Beast
Tracknumber=02
Year=2022
Genre=Black Metal



Register


Go to the top of the page
  Insert nick Quick quote
+Quote Post

Reply to this topicStart new topic
2 User(s) are reading this topic (2 Guests and 0 Anonymous Users)
0 Members:

 



- Lo-Fi Version Support form
Copyrights and abuse reports form
Time is now: 11th August 2022 - 09:56:02