Welcome Guest ( Log In | Register )

> Releases Upload / Добавление релизов

Добавить релиз тут / Click here to add release
Рекомендованные обменники / Recommended file shares

> Vhod - Tempest Of Reckoning [ep] (2022), Death Metal (D4)
post Aug 5 2022, 05:18:03
Post #1

Правь статус, ####!111
**************
Group: Металариец
Posts: 3,559
Releases: 2049
On Forums: 11 years 10 months
Thanks: 39184 time(s)
Russian Federation


(IMG:https://metalarea.org/images/audiocovers/2022_Aug/acov_tid367963_thumb.jpg)

*Artist: Vhod
*Album: Tempest Of Reckoning [ep]
*Year: 2022
*Genre: Death Metal
*Country: Canada (IMG:https://metalarea.org/forum/style_images/flags/Canada.png)
*Format: mp3@CBR320kbps
*Size: 68MB

Tracklist:
1.Periphery of Revenants 04:54
2.Uranium Saviour 05:00
3.The Screaming Stars 05:04
4.Doomclasp 05:48
5.Beyond the Sodden Sleep 05:26
6.Tempest of Reckoning 03:31
******************************
Total playing time: 29:43



Technical info
(IMG:https://metalarea.org/images/spectrogram/2022_Aug/17da0f607141fa5ad55ee668349d6642.png)
Input File: 06 - Tempest of Reckoning.mp3
Channels : 2
Sample Rate : 44100
Precision : 16-bit
Duration : 00:03:31.53 = 9328253 samples = 15864.4 CDDA sectors
File Size : 8.51M
Bit Rate : 322k
Sample Encoding: MPEG audio (layer I, II or III)
Comments :
Title=Tempest of Reckoning
Artist=VHOD
Album=Tempest of Reckoning
Tracknumber=06
Year=2022
Genre=OSDM



Register


Go to the top of the page
  Insert nick Quick quote
+Quote Post
 
Start new topic
Replies (1 - 1)
post Aug 6 2022, 09:58:24
Post #2

Мегаманьяк
***********
Group: Металариец
Posts: 1,817
Releases: 1
From: APATIN, SERBIA, АПАТИН, СЕРБИЯ
On Forums: 14 years 11 months
Thanks: 5412 time(s)



Flac

Register


Thanks:
Go to the top of the page
  Insert nick Quick quote
+Quote Post

Reply to this topicStart new topic
1 User(s) are reading this topic (1 Guests and 0 Anonymous Users)
0 Members:

 



- Lo-Fi Version Support form
Copyrights and abuse reports form
Time is now: 3rd October 2022 - 03:17:19