Welcome Guest ( Log In | Register )

> Releases Upload / Добавление релизов

Добавить релиз тут / Click here to add release
Рекомендованные обменники / Recommended file shares

> Nattfärd - Forestrealm Eternal (2022), Black Metal
post Aug 5 2022, 06:16:15
Post #1

Правь статус, ####!111
**************
Group: Металариец
Posts: 2,520
Releases: 2052
From: Praha
On Forums: 8 years 4 months
Thanks: 56084 time(s)
Czech Republic


(IMG:http://metalarea.org/images/audiocovers/2022_Aug/acov_tid367964_thumb.jpg)

*Artist: Nattfärd
*Album: Forestrealm Eternal
*Year: 2022
*Genre: Black Metal
*Country: Sweden (IMG:http://metalarea.org/forum/style_images/flags/Sweden.png)
*Format: mp3@CBR320kbps
*Size: 106MB

Tracklist:
1. Forestrealm Eternal Pt. I 23:12
2. Forestrealm Eternal Pt. II 23:14
******************************
Total playing time: 46:26

Extended info
Amor Fati Productions


Technical info
(IMG:http://metalarea.org/images/spectrogram/2022_Aug/236bd19452236a57506388dfcc46dbfc.png)
Input File: 01. Forestrealm Eternal Pt. I.mp3
Channels : 2
Sample Rate : 44100
Precision : 16-bit
Duration : 00:23:12.82 = 61423538 samples = 104462 CDDA sectors
File Size : 55.8M
Bit Rate : 320k
Sample Encoding: MPEG audio (layer I, II or III)
Comments :
Title=Forestrealm Eternal Pt. I
Artist=Nattfärd
Album=Forestrealm Eternal
Tracknumber=01/02
Year=2022
Genre=Black Metal



Register


Go to the top of the page
  Insert nick Quick quote
+Quote Post
 
Start new topic
Replies (1 - 1)
post Aug 5 2022, 20:42:29
Post #2

While Waiting the Worms
***********
Group: Металариец
Posts: 1,508
Releases: 0
On Forums: 8 years 7 months
Thanks: 2331 time(s)
Unknown




All music written and recorded during one night in September 2019 by Nattfärd.

Line up:
Likpredikaren - Vocals, guitars
Esoterica - Guitars, bass and keyboards
Swartadauthuz - Guitars, bass and keyboards
Förbannelse - Session drums


Thanks:
(1) stub888,
Go to the top of the page
  Insert nick Quick quote
+Quote Post

Reply to this topicStart new topic
2 User(s) are reading this topic (2 Guests and 0 Anonymous Users)
0 Members:

 



- Lo-Fi Version Support form
Copyrights and abuse reports form
Time is now: 11th August 2022 - 10:25:07