Welcome Guest ( Log In | Register )

> Releases Upload / Добавление релизов

Добавить релиз тут / Click here to add release
Рекомендованные обменники / Recommended file shares

 
Reply to this topicStart new topic
> David Readman - Medusa (2022), Melodic Heavy Metal/Hard Rock
post Aug 5 2022, 06:18:13
Post #1

MDM-Thrash Metal
**************
Group: Металариец
Posts: 11,324
Releases: 1567
From: Одесса
On Forums: 15 years 1 day
Thanks: 36918 time(s)
Ukraine


(IMG:http://metalarea.org/images/audiocovers/2022_Aug/acov_tid367965_thumb.jpg)

*Artist: David Readman
*Album: Medusa
*Year: 2022
*Genre: Melodic Heavy Metal/Hard Rock
*Country: Germany (IMG:http://metalarea.org/forum/style_images/flags/Germany.png)
*Format: mp3@CBR320kbps
*Size: 110MB

Tracklist:
01. Madame Medusa
02. The Fallen
03. Generation Dead
04. Turned To Black
05. Shelter From The Storm
06. Change The World
07. Mary Jane
08. Children The Thunder
09. Summer Wine
10. King Who Lost His Throne
******************************
Total playing time: 45:59


(IMG:http://metalarea.org/images/youtube.png)
(IMG:http://metalarea.org/images/youtube.png)

Extended info
Line Up:
David Readman (Pink Cream 69, ex-Voodoo Circle, ex-Tank) - Vocals
Julien Spreutels (Ethernity, Immunity for the Masses) - Keyboards
Michael Kolar (Horseman, X Almanac) - Drums
Randy van der Elsen - Bass
Bram Engelen - Guitars
Andy Nijmeijer - Keyboards
Zibby Krebs - Guitars
Roxana Herrera - Bass
Jessica Conte - Guest Vocals


Technical info
(IMG:http://metalarea.org/images/spectrogram/2022_Aug/61075812d27f31f7b9c48562fb01e84c.png)
Input File: 02 - The Fallen.mp3
Channels : 2
Sample Rate : 44100
Precision : 16-bit
Duration : 00:04:43.00 = 12480300 samples = 21225 CDDA sectors
File Size : 11.4M
Bit Rate : 324k
Sample Encoding: MPEG audio (layer I, II or III)
Comments :
Title=The Fallen
Artist=David Readman
Album=Medusa
Tracknumber=2
Year=2022-08-05
Discnumber=1



Register


Go to the top of the page
  Insert nick Quick quote
+Quote Post

Reply to this topicStart new topic
1 User(s) are reading this topic (1 Guests and 0 Anonymous Users)
0 Members:

 



- Lo-Fi Version Support form
Copyrights and abuse reports form
Time is now: 11th August 2022 - 09:04:15