Welcome Guest ( Log In | Register )

> Releases Upload / Добавление релизов

Добавить релиз тут / Click here to add release
Рекомендованные обменники / Recommended file shares

 
Reply to this topicStart new topic
> Vile Discectomy - Vaccine Prophecy (2022), Slamming Brutal Death Metal
post Aug 5 2022, 06:30:50
Post #1

MDM-Thrash Metal
**************
Group: Металариец
Posts: 11,324
Releases: 1567
From: Одесса
On Forums: 15 years 1 day
Thanks: 36918 time(s)
Ukraine


(IMG:http://metalarea.org/images/audiocovers/2022_Aug/acov_tid367966_thumb.jpg)

*Artist: Vile Discectomy
*Album: Vaccine Prophecy
*Year: 2022
*Genre: Slamming Brutal Death Metal
*Country: United Kingdom (IMG:http://metalarea.org/forum/style_images/flags/United%20Kingdom.png)
*Format: mp3@CBR320kbps
*Size: 84MB

Tracklist:
01. Cutaneous Excoriation
02. Hallucinogen Inception
03. Prevailing Misery (ft. Jonathan Huber)
04. Exhumation After Exhumation
05. Cesspool of Emesis
06. Somatic Liquefaction
07. Interminable Scourge
08. Eradication Through Contagion (ft. Ondrej Benc)
09. Chronic Atrophy
******************************
Total playing time: 35:38


(IMG:http://metalarea.org/images/youtube.png)

Extended info
James Harris Vocals, Drums (2013-present)
See also: Vorarephilia
Oliver Hall Guitars (2013-present)
Matt Harris Bass (2019-present)


Technical info
(IMG:http://metalarea.org/images/spectrogram/2022_Aug/312d2e1cd052fe42c5155faa859caeb0.png)
Input File: 02. Hallucinogen Inception.mp3
Channels : 2
Sample Rate : 44100
Precision : 16-bit
Duration : 00:03:28.05 = 9174785 samples = 15603.4 CDDA sectors
File Size : 8.32M
Bit Rate : 320k
Sample Encoding: MPEG audio (layer I, II or III)
Comments :
Title=Hallucinogen Inception
Artist=Vile Discectomy
Album=Vaccine Prophecy
Tracknumber=02
Year=2022
Genre=Slam



Register


Go to the top of the page
  Insert nick Quick quote
+Quote Post

Reply to this topicStart new topic
1 User(s) are reading this topic (1 Guests and 0 Anonymous Users)
0 Members:

 



- Lo-Fi Version Support form
Copyrights and abuse reports form
Time is now: 11th August 2022 - 09:15:47