Welcome Guest ( Log In | Register )

> Releases Upload / Добавление релизов

Добавить релиз тут / Click here to add release
Рекомендованные обменники / Recommended file shares

 
Reply to this topicStart new topic
> Vadhakarmadhikarin - Anvastra Svara Sattaragra [compilation] (2020), Black/Death Metal, Noise
post Aug 5 2022, 06:51:34
Post #1

Absorbence
**************
Group: Металариец
Posts: 2,100
Releases: 395
From: Vastland Abyss of Cthulhu
On Forums: 15 years 9 months
Thanks: 6875 time(s)
United States


(IMG:https://metalarea.org/images/audiocovers/2022_Aug/acov_tid367967_thumb.jpg)

*Artist: Vadhakarmadhikarin
*Album: Anvastra Svara Sattaragra [compilation]
*Year: 2020
*Genre: Black/Death Metal, Noise
*Country: India (IMG:https://metalarea.org/forum/style_images/flags/India.png)
*Format: mp3@CBR320kbps
*Size: 134MB

Tracklist:
01. Muladhabirjashahasrika 1:22
02. Sanatandharmakampana 4:06
03. Uchhistauggrabalidana 1:36
04. Nimnahusharakhtaprabaha 4:26
05. Adharmathakur 13:26
06. Vyaggata 4:16
07. Upabhoga 5:34
08. Untitled1 9:47
09. Untitled2 4:55
10. Untitled3 10:09
******************************
Total playing time: 59:37

Preview 1

Extended info
Spawning out of Kolkata's Inner Order this first official VADHAKARMADHIKARIN cassette is a compilation of three demos and three untitled tracks equalling one hour of putrescent black metal punishment drenched in noise!!

https://warvellum.bigcartel.com/product/vadhakarmadhikarin-anvastra-svara-sattaragra-second-edition-cassette


Technical info
(IMG:https://metalarea.org/images/spectrogram/2022_Aug/c8c1b88900fcae5d70b8a66dee0f564e.png)
Input File: 04. Nimnahusharakhtaprabaha.mp3
Channels : 2
Sample Rate : 44100
Precision : 16-bit
Duration : 00:04:26.04 = 11732276 samples = 19952.9 CDDA sectors
File Size : 10.6M
Bit Rate : 320k
Sample Encoding: MPEG audio (layer I, II or III)
Comments :
Title=Nimnahusharakhtaprabaha
Artist=Vadhakarmadhikarin
Album=Anvastra Svara Sattaragra
Tracknumber=04/10
Year=2020
Genre=Black/Death Metal



Register


Go to the top of the page
  Insert nick Quick quote
+Quote Post

Reply to this topicStart new topic
2 User(s) are reading this topic (2 Guests and 0 Anonymous Users)
0 Members:

 



- Lo-Fi Version Support form
Copyrights and abuse reports form
Time is now: 11th August 2022 - 08:55:00