Welcome Guest ( Log In | Register )

> Releases Upload / Добавление релизов

Добавить релиз тут / Click here to add release
Рекомендованные обменники / Recommended file shares

> Seven Horns - In Loving Memory (2022), Melodic Death Metal
post Aug 5 2022, 07:51:56
Post #1

MDM-Thrash Metal
**************
Group: Металариец
Posts: 11,324
Releases: 1567
From: Одесса
On Forums: 15 years 1 day
Thanks: 36918 time(s)
Ukraine


(IMG:http://metalarea.org/images/audiocovers/2022_Aug/acov_tid367968_thumb.jpg)

*Artist: Seven Horns
*Album: In Loving Memory
*Year: 2022
*Genre: Melodic Death Metal
*Country: United States (IMG:http://metalarea.org/forum/style_images/flags/United%20States.png)
*Format: mp3@CBR320kbps
*Size: 91MB

Tracklist:
1. Broken Teeth and Rusty Nails 03:53
2. Let It Burn 04:10
3. Bones of Ghosts 05:32
4. Monument to Nothing 03:25
5. A Word to the Wise 03:33
6. Woe Is Me 02:59
7. The Graveyard 03:13
8. Wishing Well 04:24
9. Chimerical 05:00
10. Sentiment 04:00
******************************
Total playing time: 40:09



(IMG:http://metalarea.org/images/youtube.png)

Extended info
Nick Merry Guitars, Bass, Keyboards, Piano, Vocals


Technical info
(IMG:http://metalarea.org/images/spectrogram/2022_Aug/0a0082e89e704fd2373df239ff4ce403.png)
Input File: 02 - Let it Burn.mp3
Channels : 2
Sample Rate : 44100
Precision : 16-bit
Duration : 00:04:10.95 = 11066851 samples = 18821.2 CDDA sectors
File Size : 10.0M
Bit Rate : 320k
Sample Encoding: MPEG audio (layer I, II or III)
Comments :
Title=Let it Burn
Artist=Seven Horns
Album=In Loving Memory
Tracknumber=2
Year=2022



Register


Go to the top of the page
  Insert nick Quick quote
+Quote Post
 
Start new topic
Replies (1 - 1)
post Aug 7 2022, 10:55:56
Post #2

Четыре Литра
****
Group: Металариец
Posts: 356
Releases: 1
On Forums: 15 years 3 months
Thanks: 34 time(s)
Russian Federation


интересно , зачем про клавиши писать))) там клавишник по-видимому забегает на огонек, 20 сек погудит рядом с "соляком" и убегает.
Go to the top of the page
  Insert nick Quick quote
+Quote Post

Reply to this topicStart new topic
2 User(s) are reading this topic (2 Guests and 0 Anonymous Users)
0 Members:

 



- Lo-Fi Version Support form
Copyrights and abuse reports form
Time is now: 11th August 2022 - 09:08:40