Welcome Guest ( Log In | Register )

> Releases Upload / Добавление релизов

Добавить релиз тут / Click here to add release
Рекомендованные обменники / Recommended file shares

 
Reply to this topicStart new topic
> Cancer Priest - Weaponized Brainstem [ep] (2022), Death Metal/Hardcore
post Aug 5 2022, 11:16:30
Post #1

Правь статус, ####!111
**************
Group: Металариец
Posts: 3,200
Releases: 1709
On Forums: 11 years 8 months
Thanks: 33373 time(s)
Russian Federation


(IMG:https://metalarea.org/images/audiocovers/2022_Aug/acov_tid367970_thumb.jpg)

*Artist: Cancer Priest
*Album: Weaponized Brainstem [ep]
*Year: 2022
*Genre: Death Metal/Hardcore
*Country: United States (IMG:https://metalarea.org/forum/style_images/flags/United%20States.png)
*Format: mp3@CBR320kbps
*Size: 50MB

Tracklist:
1.Eradication Through Automation 03:39
2.They Appear Human 01:25
3.Ring Of Children 02:46
4.Mass Media, Mass Hysteria 02:38
5.Pigsticker 03:51
6.Homegrown Killing Machine 02:58
7.Ted Kaczynski Blues 02:09
8.Untermeyer Park 02:49
******************************
Total playing time: 22:15



Technical info
(IMG:https://metalarea.org/images/spectrogram/2022_Aug/9c7598e4622a3419357de239edb9b70d.png)
Input File: 02 - They Appear Human.mp3
Channels : 2
Sample Rate : 44100
Precision : 16-bit
Duration : 00:01:25.45 = 3768521 samples = 6409.05 CDDA sectors
File Size : 3.73M
Bit Rate : 349k
Sample Encoding: MPEG audio (layer I, II or III)
Comments :
Title=They Appear Human
Artist=Cancer Priest
Album=Weaponized Brainstem
Tracknumber=02
Year=2022
Genre=Death/Hardcore



Register


Go to the top of the page
  Insert nick Quick quote
+Quote Post

Reply to this topicStart new topic
2 User(s) are reading this topic (2 Guests and 0 Anonymous Users)
0 Members:

 



- Lo-Fi Version Support form
Copyrights and abuse reports form
Time is now: 11th August 2022 - 10:44:39