Welcome Guest ( Log In | Register )

> Releases Upload / Добавление релизов

Добавить релиз тут / Click here to add release
Рекомендованные обменники / Recommended file shares

> Stratovarius - Firefly [single] (2022), Melodic Power Metal (D)
post Aug 5 2022, 11:17:14
Post #1

Правь статус, ####!111
**************
Group: Металариец
Posts: 51,357
Releases: 943
On Forums: 13 years 2 months
Thanks: 48081 time(s)
Russian Federation


(IMG:https://metalarea.org/images/audiocovers/2022_Aug/acov_tid367971_thumb.jpg)

*Artist: Stratovarius
*Album: Firefly [single]
*Year: 2022
*Genre: Melodic Power Metal
*Country: Finland (IMG:https://metalarea.org/forum/style_images/flags/Finland.png)
*Format: mp3@CBR320kbps
*Size: 9MB

Tracklist:
1. Firefly 03:39
******************************
Total playing time: 3:39

(IMG:https://metalarea.org/images/youtube.png)

Technical info
(IMG:https://metalarea.org/images/spectrogram/2022_Aug/6f7c9db39ae297c7e7107949a66d7b04.png)
Input File: 01 Firefly.mp3
Channels : 2
Sample Rate : 44100
Precision : 16-bit
Duration : 00:03:38.94 = 9655430 samples = 16420.8 CDDA sectors
File Size : 9.18M
Bit Rate : 335k
Sample Encoding: MPEG audio (layer I, II or III)
Comments :
Title=Firefly
Artist=Stratovarius
Album=Firefly
Genre=Metal



Register


Go to the top of the page
  Insert nick Quick quote
+Quote Post
 
Start new topic
Replies (1 - 5)
post Aug 5 2022, 13:26:05
Post #2

Шесть Литров
******
Group: Металариец
Posts: 661
Releases: 0
From: Беларусь,Минск
On Forums: 12 years 2 months
Thanks: 59 time(s)
Unknown


Падлай буду,Survive сейчас играет

Очень многие эту банду не котируют,постарели и это уже не то,для меня то и они очень хороши,да даже сейчас ипт.


Thanks:
(1) noel666,
Go to the top of the page
  Insert nick Quick quote
+Quote Post
post Aug 5 2022, 14:39:28
Post #3

Правь статус, ####!111
**************
Group: Металариец
Posts: 51,357
Releases: 943
On Forums: 13 years 2 months
Thanks: 48081 time(s)
Russian Federation


Cахарно и скушно (IMG:style_emoticons/default/14.gif)

Ни мрачной атмосферности первых релизов, ни цепляющей хитовости срединного периода...


Thanks:
Go to the top of the page
  Insert nick Quick quote
+Quote Post
post Aug 5 2022, 15:34:06
Post #4

Четыре Литра
****
Group: Металариец
Posts: 339
Releases: 0
From: TheМля
On Forums: 15 years 10 months
Thanks: 109 time(s)
Belarus


ЦИТАТА(vosmidesijatye @ Aug 5 2022, 16:39:28) *
Cахарно и скушно (IMG:style_emoticons/default/14.gif)

Ни мрачной атмосферности первых релизов, ни цепляющей хитовости срединного периода...

Вот это я пропустил атмосферно митола то. Стратовариус - мрачный и атмосферный... (IMG:style_emoticons/default/23.gif)
Go to the top of the page
  Insert nick Quick quote
+Quote Post
post Aug 5 2022, 15:36:46
Post #5

Шесть Литров
******
Group: Металариец
Posts: 661
Releases: 0
From: Беларусь,Минск
On Forums: 12 years 2 months
Thanks: 59 time(s)
Unknown


vosmidesijatye,к примеру,мясо бы больше)))но мне зашло.
Go to the top of the page
  Insert nick Quick quote
+Quote Post
post Aug 5 2022, 18:10:12
Post #6

https://rateyourmusic.com/~Ghostb
**************
Group: Металариец
Posts: 2,657
Releases: 0
From: Харьков
On Forums: 12 years 10 months
Thanks: 1303 time(s)
Ukraine


ЦИТАТА(dimpa @ Aug 5 2022, 17:34:06) *
Вот это я пропустил атмосферно митола то. Стратовариус - мрачный и атмосферный

Где-то до "Visions" включительно во многом таким и был, по большей части. По сабжу: без Толкки неинтересно. Впрочем, как и почти все его потуги после ухода из группы (кроме дебютного Revolution Renaissance разве что).


Thanks:
Go to the top of the page
  Insert nick Quick quote
+Quote Post

Reply to this topicStart new topic
1 User(s) are reading this topic (1 Guests and 0 Anonymous Users)
0 Members:

 



- Lo-Fi Version Support form
Copyrights and abuse reports form
Time is now: 15th August 2022 - 22:45:59