Welcome Guest ( Log In | Register )

> Releases Upload / Добавление релизов

Добавить релиз тут / Click here to add release
Рекомендованные обменники / Recommended file shares

> Yelbegen - Kafir-I Azam (2022), Black Metal
post Aug 5 2022, 12:04:43
Post #1

Правь статус, ####!111
**************
Group: Металариец
Posts: 3,200
Releases: 1709
On Forums: 11 years 8 months
Thanks: 33373 time(s)
Russian Federation


(IMG:https://metalarea.org/images/audiocovers/2022_Aug/acov_tid367972_thumb.jpg)

*Artist: Yelbegen
*Album: Kafir-I Azam
*Year: 2022
*Genre: Black Metal
*Country: Turkey (IMG:https://metalarea.org/forum/style_images/flags/Turkey.png)
*Format: mp3@CBR320kbps
*Size: 98MB

Tracklist:
01.Kafir-i Azam 02:01
02.Serzeniş 05:23
03.Izdırap 06:11
04.Anlatılanlar Vasat 05:16
05.Hiçliğin Gazabı 04:24
06.Geçmişin Zindanlarında 05:22
07.Bağnaz Beyinler 04:26
08.İblis-i Devran 05:05
09.Ruhsuz Kadavra 06:25
******************************
Total playing time: 44:33

(IMG:https://metalarea.org/images/youtube.png)

Technical info
(IMG:https://metalarea.org/images/spectrogram/2022_Aug/e92bab8a650dfb5b06b92f4807c15730.png)
Input File: 04 - Anlatılanlar Vasat.mp3
Channels : 2
Sample Rate : 44100
Precision : 16-bit
Duration : 00:05:16.29 = 13948169 samples = 23721.4 CDDA sectors
File Size : 12.8M
Bit Rate : 324k
Sample Encoding: MPEG audio (layer I, II or III)
Comments :
Title=Anlatılanlar Vasat
Artist=Yelbegen
Album=Kafir-i Azam
Tracknumber=04
Year=2022
Genre=Black Metal



Register


Go to the top of the page
  Insert nick Quick quote
+Quote Post
 
Start new topic
Replies (1 - 7)
post Aug 7 2022, 09:48:00
Post #2

Common dweller of hell
**************
Group: Металариец
Posts: 4,340
Releases: 12
From: Dnipro
On Forums: 14 years 4 weeks
Thanks: 1719 time(s)
Ukraine


Yelbegen - Kafir-I Azam (Full Album)
Go to the top of the page
  Insert nick Quick quote
+Quote Post
post Aug 7 2022, 19:08:48
Post #3

кручу наждак
**************
Group: Металариец
Posts: 5,612
Releases: 107
From: Самара
On Forums: 12 years 2 months
Thanks: 4462 time(s)
Russian Federation


Неплохо, но одноразово.
Поймал себя на мысли, что со времен выхода первого и единственного альбома Ilkim Oulanem, а было это больше 10 лет назад, не попадалось ни одного блэкового релиза из Турции, который отложился бы в памяти.
Go to the top of the page
  Insert nick Quick quote
+Quote Post
post Aug 7 2022, 23:26:23
Post #4

обратное изображение в ядовитом глазу
**************
Group: Металариец
Posts: 7,353
Releases: 11
On Forums: 12 years 8 months
Thanks: 3528 time(s)
Unknown


ЦИТАТА(judaz @ 7th August 2022 - 21:08:48) *
это больше 10 лет назад, не попадалось ни одного блэкового релиза из Турции, который отложился бы в памяти.

Zifir 2017?
Go to the top of the page
  Insert nick Quick quote
+Quote Post
post Aug 8 2022, 04:42:47
Post #5

кручу наждак
**************
Group: Металариец
Posts: 5,612
Releases: 107
From: Самара
On Forums: 12 years 2 months
Thanks: 4462 time(s)
Russian Federation


ЦИТАТА(Chasm @ Aug 7 2022, 23:26:23) *
Zifir 2017?

Название знакомое, но нет.
Go to the top of the page
  Insert nick Quick quote
+Quote Post
post Aug 8 2022, 09:16:50
Post #6

I hate you all
**************
Group: Металариец
Posts: 3,009
Releases: 94
From: Ukraine
On Forums: 15 years 3 months
Thanks: 7567 time(s)
Ukraine


ЦИТАТА(judaz @ Aug 7 2022, 21:08:48) *
Неплохо, но одноразово.
Поймал себя на мысли, что со времен выхода первого и единственного альбома Ilkim Oulanem, а было это больше 10 лет назад, не попадалось ни одного блэкового релиза из Турции, который отложился бы в памяти.

Imha Tarikat - Kara Ihlas (2019) ?
Go to the top of the page
  Insert nick Quick quote
+Quote Post
post Aug 8 2022, 10:26:01
Post #7

Маньяк
**********
Group: Металариец
Posts: 1,352
Releases: 37
From: Pietari
On Forums: 16 years 7 months
Thanks: 2220 time(s)
Russian Federation


ЦИТАТА(rimfrost @ Aug 8 2022, 11:16:50) *
Imha Tarikat - Kara Ihlas (2019) ?

Германия
Go to the top of the page
  Insert nick Quick quote
+Quote Post
post Yesterday, 22:02:58
Post #8

Common dweller of hell
**************
Group: Металариец
Posts: 4,340
Releases: 12
From: Dnipro
On Forums: 14 years 4 weeks
Thanks: 1719 time(s)
Ukraine


ЦИТАТА(judaz @ Aug 7 2022, 21:08:48) *
Неплохо, но одноразово.
Поймал себя на мысли, что со времен выхода первого и единственного альбома Ilkim Oulanem, а было это больше 10 лет назад, не попадалось ни одного блэкового релиза из Турции, который отложился бы в памяти.

The Sarcophagus, Black Omen, Sabhankra, Moribund Oblivion, Sarinvomit
Go to the top of the page
  Insert nick Quick quote
+Quote Post

Reply to this topicStart new topic
2 User(s) are reading this topic (2 Guests and 0 Anonymous Users)
0 Members:

 



- Lo-Fi Version Support form
Copyrights and abuse reports form
Time is now: 11th August 2022 - 09:01:28