Welcome Guest ( Log In | Register )

> Releases Upload / Добавление релизов

Добавить релиз тут / Click here to add release
Рекомендованные обменники / Recommended file shares

> Repulsive Creation - Adrenochrome [ep] (2022), Brutal Death Metal
post Aug 5 2022, 12:57:32
Post #1

Правь статус, ####!111
**************
Group: Металариец
Posts: 3,228
Releases: 1739
On Forums: 11 years 8 months
Thanks: 33787 time(s)
Russian Federation


(IMG:https://metalarea.org/images/audiocovers/2022_Aug/acov_tid367973_thumb.jpg)

*Artist: Repulsive Creation
*Album: Adrenochrome [ep]
*Year: 2022
*Genre: Brutal Death Metal
*Country: United States (IMG:https://metalarea.org/forum/style_images/flags/United%20States.png)
*Format: mp3@CBR320kbps
*Size: 43MB

Tracklist:
1.Ninth Gate Of Hell 02:57
2.Inert Mass Of Molested Flesh 03:06
3.Bury The Children 03:42
4.Regurgitating Placental Chunks 02:57
5.Masturbating The Evil Savile 02:11
6.The Beast Of Belgium 02:16
7.Adrenochrome 02:07
******************************
Total playing time: 19:16



Technical info
(IMG:https://metalarea.org/images/spectrogram/2022_Aug/429ed82c8e63ae1a1b312bedda7b6aa6.png)
Input File: 02 - Inert Mass of Molested Flesh.mp3
Channels : 2
Sample Rate : 44100
Precision : 16-bit
Duration : 00:03:06.92 = 8242996 samples = 14018.7 CDDA sectors
File Size : 7.60M
Bit Rate : 325k
Sample Encoding: MPEG audio (layer I, II or III)
Comments :
Title=Inert Mass of Molested Flesh
Artist=Repulsive Creation
Album=Adrenochrome
Tracknumber=02
Year=2022
Genre=Brutal Death



Register


Go to the top of the page
  Insert nick Quick quote
+Quote Post
 
Start new topic
Replies (1 - 2)
post Aug 6 2022, 09:55:15
Post #2

Мегаманьяк
***********
Group: Металариец
Posts: 1,740
Releases: 1
From: APATIN, SERBIA, АПАТИН, СЕРБИЯ
On Forums: 14 years 9 months
Thanks: 5176 time(s)



Flac

Register
Go to the top of the page
  Insert nick Quick quote
+Quote Post
post Aug 6 2022, 13:04:18
Post #3

королева бала
**********
Group: Металариец
Posts: 1,048
Releases: 0
On Forums: 15 years 3 months
Thanks: 705 time(s)
Russian Federation


Крутой альбом, хоть и короткий.
Go to the top of the page
  Insert nick Quick quote
+Quote Post

Reply to this topicStart new topic
1 User(s) are reading this topic (1 Guests and 0 Anonymous Users)
0 Members:

 



- Lo-Fi Version Support form
Copyrights and abuse reports form
Time is now: 15th August 2022 - 23:09:32