Welcome Guest ( Log In | Register )

> Releases Upload / Добавление релизов

Добавить релиз тут / Click here to add release
Рекомендованные обменники / Recommended file shares

 
Reply to this topicStart new topic
> Preterist - Blood Moon Rising (2022), Power Metal
post Aug 5 2022, 13:51:44
Post #1

Правь статус, ####!111
**************
Group: Металариец
Posts: 29,934
Releases: 22028
From: Г.Харьков
On Forums: 10 years 3 months
Thanks: 458215 time(s)
Unknown


(IMG:https://metalarea.org/images/audiocovers/2022_Aug/acov_tid367976_thumb.jpg)

*Artist: Preterist
*Album: Blood Moon Rising
*Year: 2022
*Genre: Power Metal
*Country: United States (IMG:https://metalarea.org/forum/style_images/flags/United%20States.png)
*Format: mp3@CBR320kbps
*Size: 144MB

Tracklist:
1. To the holy mountain
2. They are already here
3. Higher
4. Blood moon rising
5. This body of death
6. Free peoples of the world
7. Power of my mind
8. No more rebellion
9. Fire
10. Anomaly
11. Dying star
12. More than this
******************************
Total playing time: 1:02:13

(IMG:https://metalarea.org/images/youtube.png)
(IMG:https://metalarea.org/images/youtube.png)


Technical info
(IMG:https://metalarea.org/images/spectrogram/2022_Aug/f1cb416b840cd0afa3af864ef8b7781a.png)
Input File: 07 - Power of my mind.mp3
Channels : 2
Sample Rate : 44100
Precision : 16-bit
Duration : 00:05:59.00 = 15831900 samples = 26925 CDDA sectors
File Size : 14.5M
Bit Rate : 323k
Sample Encoding: MPEG audio (layer I, II or III)
Comments :
Title=Power of my mind
Artist=Preterist
Album=Blood moon rising
Tracknumber=7
Year=2022-08-01
Genre=Metal
Discnumber=1



Register


Go to the top of the page
  Insert nick Quick quote
+Quote Post

Reply to this topicStart new topic
2 User(s) are reading this topic (2 Guests and 0 Anonymous Users)
0 Members:

 



- Lo-Fi Version Support form
Copyrights and abuse reports form
Time is now: 11th August 2022 - 09:51:47