Welcome Guest ( Log In | Register )

> Releases Upload / Добавление релизов

Добавить релиз тут / Click here to add release
Рекомендованные обменники / Recommended file shares

 
Reply to this topicStart new topic
> Makabro - Desafío (2022), Heavy/Thrash/Power Metal
post Aug 5 2022, 14:16:32
Post #1

Правь статус, ####!111
**************
Group: Металариец
Posts: 29,951
Releases: 22039
From: Г.Харьков
On Forums: 10 years 3 months
Thanks: 458536 time(s)
Unknown


(IMG:https://metalarea.org/images/audiocovers/2022_Aug/acov_tid367977_thumb.jpg)

*Artist: Makabro
*Album: Desafío
*Year: 2022
*Genre: Heavy/Thrash/Power Metal
*Country: Argentina (IMG:https://metalarea.org/forum/style_images/flags/Argentina.png)
*Format: mp3@CBR320kbps
*Size: 134MB

Tracklist:
1. Perpetua oscuridad
2. Hacia donde voy
3. Ad honorem et pro bono
4. Faena del desierto
5. RDS 220
6. Neckro valle
7. Insurgentes
8. Desolado
9. Hostil veneno
10. Desafío
11. Un nuevo día
******************************
Total playing time: 58:44



Extended info
Matías Aedo Guitars
Samuel Gómez Guitars
Damián Fuentes Bass
Miguel Equiza Vocals
Lucas Lahetjuzan Drums


Technical info
(IMG:https://metalarea.org/images/spectrogram/2022_Aug/bb6dd183b2b8cfe2b156b0d0f45981b2.png)
Input File: 08 - Hostil veneno.mp3
Channels : 2
Sample Rate : 44100
Precision : 16-bit
Duration : 00:07:13.00 = 19095300 samples = 32475 CDDA sectors
File Size : 17.4M
Bit Rate : 321k
Sample Encoding: MPEG audio (layer I, II or III)
Comments :
Title=Hostil veneno
Artist=Makabro
Album=Desafío
Tracknumber=8
Year=2022-08-03
Genre=Metal
Discnumber=1



Register


Go to the top of the page
  Insert nick Quick quote
+Quote Post

Reply to this topicStart new topic
1 User(s) are reading this topic (1 Guests and 0 Anonymous Users)
0 Members:

 



- Lo-Fi Version Support form
Copyrights and abuse reports form
Time is now: 16th August 2022 - 00:00:01