Welcome Guest ( Log In | Register )

> Releases Upload / Добавление релизов

Добавить релиз тут / Click here to add release
Рекомендованные обменники / Recommended file shares

 
Reply to this topicStart new topic
> Runenwacht - Ten Years Of German Black Metal [compilation] (2021), Black Metal (D6)
post Aug 5 2022, 14:43:27
Post #1

Правь статус, ####!111
**************
Group: Металариец
Posts: 3,200
Releases: 1709
On Forums: 11 years 8 months
Thanks: 33373 time(s)
Russian Federation


(IMG:https://metalarea.org/images/audiocovers/2022_Aug/acov_tid367979_thumb.jpg)

*Artist: Runenwacht
*Album: Ten Years Of German Black Metal [compilation]
*Year: 2021
*Genre: Black Metal
*Country: Germany (IMG:https://metalarea.org/forum/style_images/flags/Germany.png)
*Format: mp3@CBR259kbps
*Size: 66MB

Tracklist:
1.Aversion Leben 03:07
2.Ewiger Krieg 02:34
3.Blut und Stahl 03:13
4.Der alte Baum 02:59
5.Eberkopf 02:20
6.Runenwacht 02:08
7.Der Spinnerin Nachtlied 02:47
8.Aufs Rad mit Ihm 04:20
9.Des Grimnirs Treue 06:53
10.Gebrochen 05:37
******************************
Total playing time: 35:58

Extended info
Scene CD Rip
Tracks 1-3 & 7 are taken from Support Your Local Underground.
Tracks 4+5 are taken from Des Goden Werk.
Track 6 is taken from Schrei des Hasses.
Track 8 is taken from Machtergreifung.
Tracks 9+10 were recorded exclusively for this compilation.


Technical info
(IMG:https://metalarea.org/images/spectrogram/2022_Aug/c4325ba55207f5e2843d10deab0edbd3.png)
Input File: 03_runenwacht-blut_und_stahl.mp3
Channels : 2
Sample Rate : 44100
Precision : 16-bit
Duration : 00:03:13.44 = 8530528 samples = 14507.7 CDDA sectors
File Size : 6.25M
Bit Rate : 258k
Sample Encoding: MPEG audio (layer I, II or III)
Comments :
Title=Blut Und Stahl
Artist=Runenwacht
Album=Ten Years Of German Black Metal
Tracknumber=03
Year=2022
Genre=Black Metal



Register


Go to the top of the page
  Insert nick Quick quote
+Quote Post

Reply to this topicStart new topic
2 User(s) are reading this topic (2 Guests and 0 Anonymous Users)
0 Members:

 



- Lo-Fi Version Support form
Copyrights and abuse reports form
Time is now: 11th August 2022 - 10:33:47