Welcome Guest ( Log In | Register )

> Releases Upload / Добавление релизов

Добавить релиз тут / Click here to add release
Рекомендованные обменники / Recommended file shares

 
Reply to this topicStart new topic
> Död - Enslaved By Hate [ep] (2021), Black Metal
post Aug 5 2022, 16:37:57
Post #1

Правь статус, 616
**************
Group: Металариец
Posts: 7,776
Releases: 6142
From: 55°35’N 38°08’E
On Forums: 14 years 1 month
Thanks: 112840 time(s)
Russian Federation


(IMG:https://metalarea.org/images/audiocovers/2022_Aug/acov_tid367980_thumb.jpg)

*Artist: Död
*Album: Enslaved By Hate [ep]
*Year: 2021
*Genre: Black Metal
*Country: Norway (IMG:https://metalarea.org/forum/style_images/flags/Norway.png)
*Format: mp3@CBR320kbps
*Size: 20MB

Tracklist:
1.Intro (Enter the Asylum) 01:07
2.Enslaved By Hate 03:48
3.The Hellbound Heart 02:59
4.Outro (Empty Tones of Nothing) 00:33
******************************
Total playing time: 8:27




Technical info
(IMG:https://metalarea.org/images/spectrogram/2022_Aug/2b55e4d8d9396428b7e1b76777a80919.png)
Input File: 02 Enslaved By Hate.mp3
Channels : 2
Sample Rate : 44100
Precision : 16-bit
Duration : 00:03:48.48 = 10076056 samples = 17136.1 CDDA sectors
File Size : 9.19M
Bit Rate : 322k
Sample Encoding: MPEG audio (layer I, II or III)
Comments :
Title=Enslaved By Hate
Artist=Död
Album=Enslaved by Hate
Tracknumber=2
Year=2021
Genre=Black Metal



Register


Go to the top of the page
  Insert nick Quick quote
+Quote Post

Reply to this topicStart new topic
1 User(s) are reading this topic (1 Guests and 0 Anonymous Users)
0 Members:

 



- Lo-Fi Version Support form
Copyrights and abuse reports form
Time is now: 15th August 2022 - 23:43:56