Welcome Guest ( Log In | Register )

> Releases Upload / Добавление релизов

Добавить релиз тут / Click here to add release
Рекомендованные обменники / Recommended file shares

> The Pete Flesh Deathtrip - Through Dungeons: Chapter I [single] (2017), Blackened Death Metal
post Aug 5 2022, 16:53:22
Post #1

Правь статус, 616
**************
Group: Металариец
Posts: 7,776
Releases: 6142
From: 55°35’N 38°08’E
On Forums: 14 years 1 month
Thanks: 112840 time(s)
Russian Federation


(IMG:https://metalarea.org/images/audiocovers/2022_Aug/acov_tid367983_thumb.jpg)

*Artist: The Pete Flesh Deathtrip
*Album: Through Dungeons: Chapter I [single]
*Year: 2017
*Genre: Blackened Death Metal
*Country: Sweden (IMG:https://metalarea.org/forum/style_images/flags/Sweden.png)
*Format: mp3@CBR320kbps
*Size: 19MB

Tracklist:
1.The True Salvation 03:14
2.White Faced Devil 04:48
******************************
Total playing time: 8:02



(IMG:https://metalarea.org/images/youtube.png)

Technical info
(IMG:https://metalarea.org/images/spectrogram/2022_Aug/28cce67dfeb895da0b35b09aca38b4ca.png)
Input File: 01 The True Salvation.mp3
Channels : 2
Sample Rate : 44100
Precision : 16-bit
Duration : 00:03:14.81 = 8591077 samples = 14610.7 CDDA sectors
File Size : 7.95M
Bit Rate : 327k
Sample Encoding: MPEG audio (layer I, II or III)
Comments :
Title=The True Salvation
Artist=THE PETE FLESH DEATHTRIP
Album=Through Dungeons: Chapter 1
Tracknumber=1
Year=2017
Genre=Metal



Register


Go to the top of the page
  Insert nick Quick quote
+Quote Post
 
Start new topic
Replies (1 - 1)
post Aug 9 2022, 08:21:20
Post #2

добрый мизантроп
**************
Group: Металариец
Posts: 3,109
Releases: 1
From: Менск
On Forums: 11 years 9 months
Thanks: 1378 time(s)
Madagascar


Nice (IMG:style_emoticons/default/20.gif)
Go to the top of the page
  Insert nick Quick quote
+Quote Post

Reply to this topicStart new topic
1 User(s) are reading this topic (1 Guests and 0 Anonymous Users)
0 Members:

 



- Lo-Fi Version Support form
Copyrights and abuse reports form
Time is now: 15th August 2022 - 22:14:17