Welcome Guest ( Log In | Register )

> Releases Upload / Добавление релизов

Добавить релиз тут / Click here to add release
Рекомендованные обменники / Recommended file shares

 
Reply to this topicStart new topic
> Mordant & Sabbat - Swedish Demonslaught [split] (2013), Black/Thrash Metal | Black/Thrash Metal (D)(D)
post Aug 5 2022, 17:03:26
Post #1

Правь статус, 616
**************
Group: Металариец
Posts: 7,776
Releases: 6142
From: 55°35’N 38°08’E
On Forums: 14 years 1 month
Thanks: 112840 time(s)
Russian Federation


(IMG:https://metalarea.org/images/audiocovers/2022_Aug/acov_tid367984_thumb.jpg)

*Artist: Mordant & Sabbat
*Album: Swedish Demonslaught [split]
*Year: 2013
*Genre: Black/Thrash Metal | Black/Thrash Metal
*Country: Sweden (IMG:https://metalarea.org/forum/style_images/flags/Sweden.png) | Japan (IMG:https://metalarea.org/forum/style_images/flags/Japan.png)
*Format: mp3@CBR320kbps
*Size: 31MB

Tracklist:
Mordant:
1.Satanurai 02:44
2.Lord of Evil Blood 03:06
Sabbat:
3.Witchflight (live) 03:30
4.Root of Ultimate Evil (live) 03:44
******************************
Total playing time: 13:04



(IMG:https://metalarea.org/images/youtube.png)

Technical info
(IMG:https://metalarea.org/images/spectrogram/2022_Aug/5c9d91dcbc0b5d3c2aaa1af7697d9c10.png)
Input File: 01 Mordant - Satanurai.mp3
Channels : 2
Sample Rate : 44100
Precision : 16-bit
Duration : 00:02:44.40 = 7250040 samples = 12330 CDDA sectors
File Size : 6.69M
Bit Rate : 326k
Sample Encoding: MPEG audio (layer I, II or III)
Comments :
Title=Satanurai
Artist=MORDANT
Album=Swedish DemonSlaught
Tracknumber=1
Year=2013
Genre=Metal



Register


Go to the top of the page
  Insert nick Quick quote
+Quote Post

Reply to this topicStart new topic
1 User(s) are reading this topic (1 Guests and 0 Anonymous Users)
0 Members:

 



- Lo-Fi Version Support form
Copyrights and abuse reports form
Time is now: 15th August 2022 - 22:29:56