Welcome Guest ( Log In | Register )

> Releases Upload / Добавление релизов

Добавить релиз тут / Click here to add release
Рекомендованные обменники / Recommended file shares

 
Reply to this topicStart new topic
> Feral Howl - Atavistic Meditations [demo] (2022), Black Metal
post Aug 5 2022, 17:06:56
Post #1

Правь статус, ####!111
**************
Group: Металариец
Posts: 2,520
Releases: 2052
From: Praha
On Forums: 8 years 4 months
Thanks: 56084 time(s)
Czech Republic


(IMG:http://metalarea.org/images/audiocovers/2022_Aug/acov_tid367985_thumb.jpg)

*Artist: Feral Howl
*Album: Atavistic Meditations [demo]
*Year: 2022
*Genre: Black Metal
*Country: Norway (IMG:http://metalarea.org/forum/style_images/flags/Norway.png)
*Format: mp3@CBR320kbps
*Size: 50MB

Tracklist:
1. The Blood Upon The Earth 05:07
2. Atavistic Meditations 05:14
3. Specters Of The Dismal Fog 06:07
4. Sojourner 04:48
******************************
Total playing time: 21:16



Technical info
(IMG:http://metalarea.org/images/spectrogram/2022_Aug/b8742e7c6ba15cb6ff330cdcdbc3963c.png)
Input File: 03. Specters of the Dismal Fog.mp3
Channels : 2
Sample Rate : 44100
Precision : 16-bit
Duration : 00:06:07.54 = 16208514 samples = 27565.5 CDDA sectors
File Size : 14.8M
Bit Rate : 322k
Sample Encoding: MPEG audio (layer I, II or III)
Comments :
Title=Specters of the Dismal Fog
Artist=Feral Howl
Album=Atavistic Meditations
Tracknumber=03/04
Year=2022
Genre=Black Metal
Discnumber=1/1



Register


Go to the top of the page
  Insert nick Quick quote
+Quote Post

Reply to this topicStart new topic
2 User(s) are reading this topic (2 Guests and 0 Anonymous Users)
0 Members:

 



- Lo-Fi Version Support form
Copyrights and abuse reports form
Time is now: 11th August 2022 - 08:37:08