Welcome Guest ( Log In | Register )

> Releases Upload / Добавление релизов

Добавить релиз тут / Click here to add release
Рекомендованные обменники / Recommended file shares

> Blood God & Debauchery - Demons Of Rock' N' Roll [split] (2022), Heavy Metal/Hard Rock | Death 'n' Roll (D4)(D)
post Aug 5 2022, 17:20:47
Post #1

Правь статус, ####!111
**************
Group: Металариец
Posts: 5,326
Releases: 4874
From: Одесса
On Forums: 14 years 2 months
Thanks: 57255 time(s)
Ukraine


(IMG:http://metalarea.org/images/audiocovers/2022_Aug/acov_tid367986_thumb.jpg)

*Artist: Blood God & Debauchery
*Album: Demons Of Rock' N' Roll [split]
*Year: 2022
*Genre: Heavy Metal/Hard Rock | Death 'n' Roll
*Country: Germany (IMG:http://metalarea.org/forum/style_images/flags/Germany.png) | Germany (IMG:http://metalarea.org/forum/style_images/flags/Germany.png)
*Format: mp3@CBR320kbps
*Size: 176MB

Tracklist:
Disc 1
Blood God:

1. Demons of Rock' n' Roll
2. Going to Hell
3. Nude Nuns
4. Bombshell
5. Beware of the Blood Babe
6. Raze Hell
7. Rockmachine
8. Ready for the Next Show
9. The Devil Will Burn in Hell
10. Children of the Flame

Disc 2
Debauchery:

11. Demons of Rock' n' Roll
12. Going to Hell
13. Nude Nuns
14. Bombshell
15. Beware of the Blood Babe
16. Raze Hell
17. Rockmachine
18. Ready for the Next Show
19. The Devil Will Burn in Hell
20. Children of the Flame
******************************
Total playing time: 1:14:56

Apple Music

Extended info
As usual, the new BLOOD GOD album also comes as a 2-CD package, the second CD of which contains all the songs sung by DEBAUCHERY's monster voice.



Technical info
(IMG:http://metalarea.org/images/spectrogram/2022_Aug/eb5c109b9e0157ceb5c26fdde81b25c3.png)
Input File: 05. Beware Of The Blood Babe.mp3
Channels : 2
Sample Rate : 44100
Precision : 16-bit
Duration : 00:04:12.10 = 11117522 samples = 18907.4 CDDA sectors
File Size : 10.1M
Bit Rate : 320k
Sample Encoding: MPEG audio (layer I, II or III)
Comments :
Title=Beware Of The Blood Babe
Artist=Blood God
Album=Demons of Rock'n'Roll (Split)
Tracknumber=5
Year=2022
Discnumber=1



Register


Go to the top of the page
  Insert nick Quick quote
+Quote Post
 
Start new topic
Replies (1 - 2)
post Today, 17:43:15
Post #2

Group: Подсевший
Posts: 15
Releases: 0
On Forums: 9 years 8 months
Thanks: 1 time(s)
Czech Republic


Mirror please?
Go to the top of the page
  Insert nick Quick quote
+Quote Post
post Today, 18:12:46
Post #3

Пять Литров
*****
Group: Металариец
Posts: 490
Releases: 0
From: Город Герой Москва!
On Forums: 15 years 11 months
Thanks: 36 time(s)
Russian Federation


По последнему их реализу, который был в прошлом или в позапрошлом году, первую часть можно смело выкинуть.
Go to the top of the page
  Insert nick Quick quote
+Quote Post

Reply to this topicStart new topic
1 User(s) are reading this topic (1 Guests and 0 Anonymous Users)
0 Members:

 



- Lo-Fi Version Support form
Copyrights and abuse reports form
Time is now: 15th August 2022 - 22:52:20