Welcome Guest ( Log In | Register )

> Releases Upload / Добавление релизов

Добавить релиз тут / Click here to add release
Рекомендованные обменники / Recommended file shares

> Eluvian - Tales Of Ymaarenth [ep] (2022), Melodic Death Metal
post Aug 5 2022, 17:20:59
Post #1

Правь статус, ####!111
**************
Group: Металариец
Posts: 29,951
Releases: 22039
From: Г.Харьков
On Forums: 10 years 3 months
Thanks: 458533 time(s)
Unknown


(IMG:https://metalarea.org/images/audiocovers/2022_Aug/acov_tid367987_thumb.jpg)

*Artist: Eluvian
*Album: Tales Of Ymaarenth [ep]
*Year: 2022
*Genre: Melodic Death Metal
*Country: Norway (IMG:https://metalarea.org/forum/style_images/flags/Norway.png)
*Format: mp3@CBR320kbps
*Size: 53MB

Tracklist:
1. Cockatrice 04:59
2. Upperclass adultery 05:10
3. Space marine 05:03
4. Meadhouse scuttlebutt 04:36
5. Svart regn 03:08
******************************
Total playing time: 22:56




Extended info
Espen Mork Bass
See also: Cultural Abomination
Ludvig Pedersen Drums
See also: Darkest Sins
Mads Smebakk Guitars
See also: Cultural Abomination
Markus Olsen Vocals
See also: Våkenatt


Technical info
(IMG:https://metalarea.org/images/spectrogram/2022_Aug/a33e35bee2e03e532e4f858c412da8fb.png)
Input File: 04 - Meadhouse Scuttlebutt.mp3
Channels : 2
Sample Rate : 44100
Precision : 16-bit
Duration : 00:04:36.00 = 12171600 samples = 20700 CDDA sectors
File Size : 11.2M
Bit Rate : 325k
Sample Encoding: MPEG audio (layer I, II or III)
Comments :
Title=Meadhouse Scuttlebutt
Artist=Eluvian
Album=Tales of Ymaarenth
Tracknumber=4
Year=2022-08-05
Genre=Metal
Discnumber=1



Register


Go to the top of the page
  Insert nick Quick quote
+Quote Post
 
Start new topic
Replies (1 - 1)
post Aug 6 2022, 06:49:50
Post #2

Четыре Литра
****
Group: Металариец
Posts: 356
Releases: 1
On Forums: 15 years 3 months
Thanks: 34 time(s)
Russian Federation


оо, будто ремиксы portraits of flesh слушаю))))) мраааак!
Go to the top of the page
  Insert nick Quick quote
+Quote Post

Reply to this topicStart new topic
1 User(s) are reading this topic (1 Guests and 0 Anonymous Users)
0 Members:

 



- Lo-Fi Version Support form
Copyrights and abuse reports form
Time is now: 15th August 2022 - 23:04:37