Welcome Guest ( Log In | Register )

> Releases Upload / Добавление релизов

Добавить релиз тут / Click here to add release
Рекомендованные обменники / Recommended file shares

> Ciemra - Agony Blasphemy [ep] (2022), Black Metal
post Aug 5 2022, 19:10:22
Post #1

Правь статус, 616
**************
Group: Металариец
Posts: 7,775
Releases: 6141
From: 55°35’N 38°08’E
On Forums: 14 years 1 month
Thanks: 112763 time(s)
Russian Federation


(IMG:https://metalarea.org/images/audiocovers/2022_Aug/acov_tid367990_thumb.jpg)

*Artist: Ciemra
*Album: Agony Blasphemy [ep]
*Year: 2022
*Genre: Black Metal
*Country: Belarus (IMG:https://metalarea.org/forum/style_images/flags/Belarus.png)
*Format: mp3@CBR320kbps
*Size: 25MB

Tracklist:
1.Sanguis Dei Super Dentes Luciferi 05:11
2.Agony Blasphemy 03:40
******************************
Total playing time: 8:51




Technical info
(IMG:https://metalarea.org/images/spectrogram/2022_Aug/fc608dce04933dd05e8edb954d02a344.png)
Input File: 01 Sanguis Dei Super Dentes Luciferi.mp3
Channels : 2
Sample Rate : 44100
Precision : 16-bit
Duration : 00:05:11.50 = 13737326 samples = 23362.8 CDDA sectors
File Size : 12.6M
Bit Rate : 324k
Sample Encoding: MPEG audio (layer I, II or III)
Comments :
Title=Sanguis Dei Super Dentes Luciferi
Artist=Сiemra
Album=Agony Blasphemy
Tracknumber=1
Year=2022
Genre=Black Metal



Register


Go to the top of the page
  Insert nick Quick quote
+Quote Post
 
Start new topic
Replies (1 - 1)
post Aug 8 2022, 14:22:16
Post #2

добрый мизантроп
**************
Group: Металариец
Posts: 3,101
Releases: 1
From: Менск
On Forums: 11 years 8 months
Thanks: 1370 time(s)
Madagascar


(IMG:style_emoticons/default/true_black.gif) (IMG:style_emoticons/default/true_black.gif) (IMG:style_emoticons/default/true_black.gif)
Go to the top of the page
  Insert nick Quick quote
+Quote Post

Reply to this topicStart new topic
2 User(s) are reading this topic (2 Guests and 0 Anonymous Users)
0 Members:

 



- Lo-Fi Version Support form
Copyrights and abuse reports form
Time is now: 11th August 2022 - 08:46:42