Welcome Guest ( Log In | Register )

> Releases Upload / Добавление релизов

Добавить релиз тут / Click here to add release
Рекомендованные обменники / Recommended file shares

> Rotten Soil - From Beyond The Grave (2022), Death Metal (D7)
post Aug 5 2022, 19:30:43
Post #1

Правь статус, ####!111
**************
Group: Металариец
Posts: 29,951
Releases: 22039
From: Г.Харьков
On Forums: 10 years 3 months
Thanks: 458534 time(s)
Unknown


(IMG:https://metalarea.org/images/audiocovers/2022_Aug/acov_tid367992_thumb.jpg)

*Artist: Rotten Soil
*Album: From Beyond The Grave
*Year: 2022
*Genre: Death Metal
*Country: Germany (IMG:https://metalarea.org/forum/style_images/flags/Germany.png)
*Format: mp3@CBR320kbps
*Size: 97MB

Tracklist:
01. Exordium
02. Indoctrination
03. Overthrow the Sacred Throne
04. Drowning in Blood
05. Necrobreed
06. Buried to Rot
07. Bastard of Christ
08. Slaves to Darkness
09. From Sin to Salvation
10. The Ritual
11. Black Mass
12. Putrefaction
******************************
Total playing time: 41:40




Extended info


Technical info
(IMG:https://metalarea.org/images/spectrogram/2022_Aug/6f9a3a79e92ced9cad2863e85219c63f.png)
Input File: 07 - Bastard of Christ.mp3
Channels : 2
Sample Rate : 44100
Precision : 16-bit
Duration : 00:03:51.00 = 10187100 samples = 17325 CDDA sectors
File Size : 9.37M
Bit Rate : 325k
Sample Encoding: MPEG audio (layer I, II or III)
Comments :
Title=Bastard of Christ
Artist=Rotten Soil
Album=From Beyond the Grave
Tracknumber=7
Year=2022-08-05
Genre=Pop
Discnumber=1



Register


Go to the top of the page
  Insert nick Quick quote
+Quote Post
 
Start new topic
Replies (1 - 4)
post Aug 5 2022, 21:28:07
Post #2

Правь статус, ####!111
**************
Group: Металариец
Posts: 29,951
Releases: 22039
From: Г.Харьков
On Forums: 10 years 3 months
Thanks: 458534 time(s)
Unknown


FLAC (Tracks) 313 mb
Register


Thanks:
Go to the top of the page
  Insert nick Quick quote
+Quote Post
post Aug 5 2022, 21:47:31
Post #3

Full-of-Hate
**************
Group: Металариец
Posts: 4,979
Releases: 0
From: Moscow
On Forums: 13 years 1 month
Thanks: 5558 time(s)
Russian Federation


Законсервированный в консервативных клише Death Metal.
Уже с первого трека можно сказать, по каким бандам прутся участники группы и на кого хотят быть похожими. Так сказать "under the influence".
По совокупности впечатлений фонограмма неплохая, но иногда вызывает желание широко зевнуть. Если вы пропустите релиз - ничего не потярете, кроме 40 минут времени, которые могли быть посвящены достаточно заурядному альбому с редкими удачными проблесками.


Thanks:
Go to the top of the page
  Insert nick Quick quote
+Quote Post
post Aug 6 2022, 07:56:50
Post #4

кручу наждак
**************
Group: Металариец
Posts: 5,615
Releases: 107
From: Самара
On Forums: 12 years 3 months
Thanks: 4465 time(s)
Russian Federation


Фулофхейт в принципе все сказал.
Средний или чуть ниже по всем параметрам дет-метал, для самых невзыскательных потребителей (например аудитории Рогги).
Go to the top of the page
  Insert nick Quick quote
+Quote Post
post Aug 7 2022, 09:46:35
Post #5

Common dweller of hell
**************
Group: Металариец
Posts: 4,343
Releases: 12
From: Dnipro
On Forums: 14 years 1 month
Thanks: 1721 time(s)
Ukraine


ЦИТАТА(judaz @ Aug 6 2022, 09:56:50) *
для самых невзыскательных потребителей (например аудитории Рогги).

Ну ты это, Роггу не трогай, не святотатствуй (IMG:style_emoticons/default/25.gif)
Go to the top of the page
  Insert nick Quick quote
+Quote Post

Reply to this topicStart new topic
2 User(s) are reading this topic (2 Guests and 0 Anonymous Users)
0 Members:

 



- Lo-Fi Version Support form
Copyrights and abuse reports form
Time is now: 15th August 2022 - 23:07:43