Welcome Guest ( Log In | Register )

> Releases Upload / Добавление релизов

Добавить релиз тут / Click here to add release
Рекомендованные обменники / Recommended file shares

 
Reply to this topicStart new topic
> Deathroll - Immorality (2022), Black/Heavy Metal
post Aug 5 2022, 19:44:27
Post #1

Правь статус, ####!111
**************
Group: Металариец
Posts: 29,934
Releases: 22028
From: Г.Харьков
On Forums: 10 years 3 months
Thanks: 458214 time(s)
Unknown


(IMG:https://metalarea.org/images/audiocovers/2022_Aug/acov_tid367993_thumb.jpg)

*Artist: Deathroll
*Album: Immorality
*Year: 2022
*Genre: Black/Heavy Metal
*Country: Japan (IMG:https://metalarea.org/forum/style_images/flags/Japan.png)
*Format: mp3@CBR320kbps
*Size: 75MB

Tracklist:
1. Don't understand the principle of the thing
2. Collapse Ethics
3. Melting happiness
4. Hell on earth
5. Desolate
6. Obscenity named brainwashing
7. Journey to the underworld
8. Healing called the death
******************************
Total playing time: 32:22



Extended info


Technical info
(IMG:https://metalarea.org/images/spectrogram/2022_Aug/23366ce13591b98cd100595d59f9bfa2.png)
Input File: 08 - Healing Called the Death.mp3
Channels : 2
Sample Rate : 44100
Precision : 16-bit
Duration : 00:05:05.96 = 13492968 samples = 22947.2 CDDA sectors
File Size : 12.4M
Bit Rate : 323k
Sample Encoding: MPEG audio (layer I, II or III)
Comments :
Title=Healing Called the Death
Artist=DEATHROLL
Album=Immorality
Tracknumber=8/8
Year=2022



Register


Go to the top of the page
  Insert nick Quick quote
+Quote Post

Reply to this topicStart new topic
2 User(s) are reading this topic (2 Guests and 0 Anonymous Users)
0 Members:

 



- Lo-Fi Version Support form
Copyrights and abuse reports form
Time is now: 11th August 2022 - 09:23:18