Welcome Guest ( Log In | Register )

> Releases Upload / Добавление релизов

Добавить релиз тут / Click here to add release
Рекомендованные обменники / Recommended file shares

 
Reply to this topicStart new topic
> Uamh - A Windswept River's Edge, Carved Through Ancient Stone [ep] (2022), Atmospheric/Post-Black Metal
post Aug 5 2022, 19:58:20
Post #1

Правь статус, 616
**************
Group: Металариец
Posts: 7,971
Releases: 6310
From: 55°35’N 38°08’E
On Forums: 14 years 2 months
Thanks: 115360 time(s)
Russian Federation


(IMG:https://metalarea.org/images/audiocovers/2022_Aug/acov_tid367994_thumb.jpg)

*Artist: Uamh
*Album: A Windswept River's Edge, Carved Through Ancient Stone [ep]
*Year: 2022
*Genre: Atmospheric/Post-Black Metal
*Country: United States (IMG:https://metalarea.org/forum/style_images/flags/United%20States.png)
*Format: mp3@CBR320kbps
*Size: 43MB

Tracklist:
1.Pt.1 10:24
2.Pt. 2 07:18
******************************
Total playing time: 17:42



Technical info
(IMG:https://metalarea.org/images/spectrogram/2022_Aug/be82f7f1be6f1c629deecf9d82a85053.png)
Input File: 01 Pt. 1.mp3
Channels : 2
Sample Rate : 44100
Precision : 16-bit
Duration : 00:10:24.49 = 27540185 samples = 46837 CDDA sectors
File Size : 25.2M
Bit Rate : 323k
Sample Encoding: MPEG audio (layer I, II or III)
Comments :
Title=Pt. 1
Artist=Uamh
Album=A Windswept River's Edge, Carved Through Ancient Stone
Tracknumber=1
Year=2022
Genre=Black Metal



Register


Go to the top of the page
  Insert nick Quick quote
+Quote Post

Reply to this topicStart new topic
2 User(s) are reading this topic (2 Guests and 0 Anonymous Users)
0 Members:

 



- Lo-Fi Version Support form
Copyrights and abuse reports form
Time is now: 3rd October 2022 - 02:01:37