Welcome Guest ( Log In | Register )

> Releases Upload / Добавление релизов

Добавить релиз тут / Click here to add release
Рекомендованные обменники / Recommended file shares

 
Reply to this topicStart new topic
> City Indian - W.P.C.I Warning [ep] (1985), Hardcore/Heavy/Speed Metal
post Aug 5 2022, 22:36:55
Post #1

Join my religion, or die
**************
Group: Металариец
Posts: 11,194
Releases: 1840
From: Питера
On Forums: 12 years 11 months
Thanks: 24335 time(s)
Russian Federation


(IMG:https://metalarea.org/images/audiocovers/2022_Aug/acov_tid367995_thumb.jpg)

*Artist: City Indian
*Album: W.P.C.I Warning [ep]
*Year: 1985
*Genre: Hardcore/Heavy/Speed Metal
*Country: Japan (IMG:https://metalarea.org/forum/style_images/flags/Japan.png)
*Format: mp3@CBR320kbps
*Size: 27MB

Tracklist:
01. Viviant Rock 03:34
02. W.P.C.I Warning 03:06
03. Let's Hot 02:04
04. One Way Eager 02:39
******************************
Total playing time: 11:23

Preview 1
(IMG:https://metalarea.org/images/youtube.png)

Technical info
(IMG:https://metalarea.org/images/spectrogram/2022_Aug/51ca6a3e92d9fd6b1f61301c2fce2554.png)
Input File: 02 W.P.C.I Warning.mp3
Channels : 2
Sample Rate : 44100
Precision : 16-bit
Duration : 00:03:08.23 = 8300723 samples = 14116.9 CDDA sectors
File Size : 7.66M
Bit Rate : 326k
Sample Encoding: MPEG audio (layer I, II or III)
Comments :
Title=W.P.C.I Warning
Artist=City Indian
Album=1985 W.P.C.I Warning
Tracknumber=02/04
Year=2017
Genre=Heavy Metal



Register


Go to the top of the page
  Insert nick Quick quote
+Quote Post

Reply to this topicStart new topic
2 User(s) are reading this topic (2 Guests and 0 Anonymous Users)
0 Members:

 



- Lo-Fi Version Support form
Copyrights and abuse reports form
Time is now: 25th September 2022 - 09:57:05