Welcome Guest ( Log In | Register )

> Releases Upload / Добавление релизов

Добавить релиз тут / Click here to add release
Рекомендованные обменники / Recommended file shares

> City Indian - Terror Boogie [ep] (1986), Hardcore/Heavy/Speed Metal
post Aug 5 2022, 22:40:32
Post #1

Join my religion, or die
**************
Group: Металариец
Posts: 11,171
Releases: 1826
From: Питера
On Forums: 12 years 10 months
Thanks: 24157 time(s)
Russian Federation


(IMG:https://metalarea.org/images/audiocovers/2022_Aug/acov_tid367996_thumb.jpg)

*Artist: City Indian
*Album: Terror Boogie [ep]
*Year: 1986
*Genre: Hardcore/Heavy/Speed Metal
*Country: Japan (IMG:https://metalarea.org/forum/style_images/flags/Japan.png)
*Format: mp3@CBR320kbps
*Size: 40MB

Tracklist:
01. Terror Boogie 03:41
02. Magic Lips 04:07
03. Despaired Crowd 02:36
04. Saturday Night Trap 03:19
05. Drunky Boxer 03:19
06. Prelude to Indian 01:41
******************************
Total playing time: 18:43

Preview 1
(IMG:https://metalarea.org/images/youtube.png)

Technical info
(IMG:https://metalarea.org/images/spectrogram/2022_Aug/e2d90b357a859fbe56f47ce660df98f8.png)
Input File: 02 Magic Lips.mp3
Channels : 2
Sample Rate : 44100
Precision : 16-bit
Duration : 00:04:07.73 = 10924717 samples = 18579.5 CDDA sectors
File Size : 10.0M
Bit Rate : 324k
Sample Encoding: MPEG audio (layer I, II or III)
Comments :
Title=Magic Lips
Artist=City Indian
Album=1986 Terror Boogie
Tracknumber=02/06
Year=2017
Genre=Heavy Metal



Register


Go to the top of the page
  Insert nick Quick quote
+Quote Post
 
Start new topic
Replies (1 - 1)
post Aug 6 2022, 15:55:58
Post #2

Литр
*
Group: Подсевший
Posts: 82
Releases: 0
On Forums: 7 years 9 months
Thanks: 5 time(s)
Unknown


Неполное название: группа называется Warpainted City Indian.
Go to the top of the page
  Insert nick Quick quote
+Quote Post

Reply to this topicStart new topic
2 User(s) are reading this topic (2 Guests and 0 Anonymous Users)
0 Members:

 



- Lo-Fi Version Support form
Copyrights and abuse reports form
Time is now: 11th August 2022 - 10:04:23