Welcome Guest ( Log In | Register )

 
Reply to this topicStart new topic
> City Indian - Howling On Fire (1991), Hardcore/Heavy/Speed Metal
post Aug 5 2022, 22:44:55
Post #1

Join my religion, or die
**************
Group: Металариец
Posts: 11,194
Releases: 1840
From: Питера
On Forums: 12 years 11 months
Thanks: 24335 time(s)
Russian Federation


(IMG:https://metalarea.org/images/audiocovers/2022_Aug/acov_tid367997_thumb.jpg)

*Artist: City Indian
*Album: Howling On Fire
*Year: 1991
*Genre: Hardcore/Heavy/Speed Metal
*Country: Japan (IMG:https://metalarea.org/forum/style_images/flags/Japan.png)
*Format: mp3@CBR320kbps
*Size: 96MB

Tracklist:
01. Howling 03:01
02. Shake Your Boots 02:38
03. Magic Lips 03:32
04. You Bringin' Out My Soul 04:05
05. Lust Monkey Road 04:55
06. Viviant Rock 03:41
07. Saturday Night Trap 03:03
08. I Don't Think 'Bout Anything 02:41
09. Terror Boogie 03:25
10. Despaired Coward 02:34
11. Drunky Boxer 03:08
12. Mad Sister (Crazy to Sex) 04:38
******************************
Total playing time: 41:21

Preview 1
(IMG:https://metalarea.org/images/youtube.png)

Technical info
(IMG:https://metalarea.org/images/spectrogram/2022_Aug/920eba0f3359da8f1bbe524f62417816.png)
Input File: 01 Howling.mp3
Channels : 2
Sample Rate : 44100
Precision : 16-bit
Duration : 00:03:01.17 = 7989685 samples = 13587.9 CDDA sectors
File Size : 7.39M
Bit Rate : 326k
Sample Encoding: MPEG audio (layer I, II or III)
Comments :
Title=Howling
Artist=City Indian
Album=1991 Howling on Fire
Tracknumber=01/12
Year=2017
Genre=Heavy Metal



Register


Go to the top of the page
  Insert nick Quick quote
+Quote Post

Reply to this topicStart new topic
1 User(s) are reading this topic (1 Guests and 0 Anonymous Users)
0 Members:

 



- Lo-Fi Version Support form
Copyrights and abuse reports form
Time is now: 25th September 2022 - 07:05:02