Welcome Guest ( Log In | Register )

> Releases Upload / Добавление релизов

Добавить релиз тут / Click here to add release
Рекомендованные обменники / Recommended file shares

> Nean - The Ominous Catharsis (2022), Raw Black Metal
post Aug 5 2022, 23:19:58
Post #1

Правь статус, 616
**************
Group: Металариец
Posts: 7,775
Releases: 6141
From: 55°35’N 38°08’E
On Forums: 14 years 1 month
Thanks: 112764 time(s)
Russian Federation


(IMG:https://metalarea.org/images/audiocovers/2022_Aug/acov_tid367998_thumb.jpg)

*Artist: Nean
*Album: The Ominous Catharsis
*Year: 2022
*Genre: Raw Black Metal
*Country: France (IMG:https://metalarea.org/forum/style_images/flags/France.png)
*Format: mp3@CBR320kbps
*Size: 107MB

Tracklist:
1.Celebrate the Fall 01:25
2.Enter the Void 04:43
3.Obliteration 04:26
4.The Ominous Catharsis 06:10
5.Neurosis Labyrinth 04:21
6.Hopelessness 05:01
7.Betrayal 06:41
8.No Salvation 02:31
9.Bleeding Forever (Burier Cover) 10:24
******************************
Total playing time: 45:42





Technical info
(IMG:https://metalarea.org/images/spectrogram/2022_Aug/fc982fa8ed2748ee24359aa03b4e7573.png)
Input File: 01 Celebrate The Fall.mp3
Channels : 2
Sample Rate : 44100
Precision : 16-bit
Duration : 00:01:25.59 = 3774299 samples = 6418.88 CDDA sectors
File Size : 3.63M
Bit Rate : 339k
Sample Encoding: MPEG audio (layer I, II or III)
Comments :
Title=Celebrate The Fall
Artist=Nean
Album=The Ominous Catharsis
Tracknumber=1
Year=2022
Genre=Black Metal



Register


Go to the top of the page
  Insert nick Quick quote
+Quote Post
 
Start new topic
Replies (1 - 2)
post Aug 7 2022, 04:23:19
Post #2

Black Death Grind Madness
******
Group: Металариец
Posts: 585
Releases: 0
From: Cassilandia
On Forums: 14 years 1 month
Thanks: 70 time(s)
Brazil


No Flac? (IMG:style_emoticons/default/dwarf-1.gif)
Go to the top of the page
  Insert nick Quick quote
+Quote Post
post Aug 7 2022, 15:18:34
Post #3

Правь статус, 616
**************
Group: Металариец
Posts: 7,775
Releases: 6141
From: 55°35’N 38°08’E
On Forums: 14 years 1 month
Thanks: 112764 time(s)
Russian Federation


FLAC

Register


Thanks:
Go to the top of the page
  Insert nick Quick quote
+Quote Post

Reply to this topicStart new topic
2 User(s) are reading this topic (2 Guests and 0 Anonymous Users)
0 Members:

 



- Lo-Fi Version Support form
Copyrights and abuse reports form
Time is now: 11th August 2022 - 10:34:20