Welcome Guest ( Log In | Register )

> Releases Upload / Добавление релизов

Добавить релиз тут / Click here to add release
Рекомендованные обменники / Recommended file shares

> Nean - Farewell Paris... [ep] (2022), Raw Black Metal
post Aug 5 2022, 23:36:31
Post #1

Правь статус, 616
**************
Group: Металариец
Posts: 7,776
Releases: 6142
From: 55°35’N 38°08’E
On Forums: 14 years 1 month
Thanks: 112840 time(s)
Russian Federation


(IMG:https://metalarea.org/images/audiocovers/2022_Aug/acov_tid367999_thumb.jpg)

*Artist: Nean
*Album: Farewell Paris... [ep]
*Year: 2022
*Genre: Raw Black Metal
*Country: France (IMG:https://metalarea.org/forum/style_images/flags/France.png)
*Format: mp3@CBR320kbps
*Size: 24MB

Tracklist:
1.Blessed In Silence 04:42
2.So Long And Thank You For The Ordeals... 04:55
******************************
Total playing time: 9:37




Technical info
(IMG:https://metalarea.org/images/spectrogram/2022_Aug/ff75e9b59613c38442fee4943d550993.png)
Input File: 01 Blessed In Silence (EP version).mp3
Channels : 2
Sample Rate : 44100
Precision : 16-bit
Duration : 00:04:42.40 = 12453928 samples = 21180.1 CDDA sectors
File Size : 11.4M
Bit Rate : 323k
Sample Encoding: MPEG audio (layer I, II or III)
Comments :
Title=Blessed In Silence (EP version)
Artist=NEAN
Album=FAREWELL PARIS...EP
Tracknumber=1
Year=2022
Genre=Black Metal



Register


Go to the top of the page
  Insert nick Quick quote
+Quote Post
 
Start new topic
Replies (1 - 2)
post Aug 6 2022, 15:13:49
Post #2

Правь статус, 616
**************
Group: Металариец
Posts: 7,776
Releases: 6142
From: 55°35’N 38°08’E
On Forums: 14 years 1 month
Thanks: 112840 time(s)
Russian Federation


FLAC

Register


Go to the top of the page
  Insert nick Quick quote
+Quote Post
post Aug 7 2022, 04:23:34
Post #3

Black Death Grind Madness
******
Group: Металариец
Posts: 585
Releases: 0
From: Cassilandia
On Forums: 14 years 1 month
Thanks: 70 time(s)
Brazil


QUOTE(smysl @ Aug 6 2022, 17:13:49) *
FLAC

(IMG:style_emoticons/default/pray.gif)
Go to the top of the page
  Insert nick Quick quote
+Quote Post

Reply to this topicStart new topic
1 User(s) are reading this topic (1 Guests and 0 Anonymous Users)
0 Members:

 



- Lo-Fi Version Support form
Copyrights and abuse reports form
Time is now: 15th August 2022 - 22:37:20