Welcome Guest ( Log In | Register )

> Releases Upload / Добавление релизов

Добавить релиз тут / Click here to add release
Рекомендованные обменники / Recommended file shares

> Urocyon - Urocyon (2022), Atmospheric Black Metal
post Aug 6 2022, 02:14:02
Post #1

Правь статус, 616
**************
Group: Металариец
Posts: 7,775
Releases: 6141
From: 55°35’N 38°08’E
On Forums: 14 years 1 month
Thanks: 112763 time(s)
Russian Federation


(IMG:https://metalarea.org/images/audiocovers/2022_Aug/acov_tid368003_thumb.jpg)

*Artist: Urocyon
*Album: Urocyon
*Year: 2022
*Genre: Atmospheric Black Metal
*Country: United States (IMG:https://metalarea.org/forum/style_images/flags/United%20States.png)
*Format: mp3@CBR320kbps
*Size: 70MB

Tracklist:
1.Witness 07:57
2.A Baleful Sun Rises 06:03
3.The Distant Woods 07:31
4.Progress? 08:49
******************************
Total playing time: 30:20




Technical info
(IMG:https://metalarea.org/images/spectrogram/2022_Aug/40b658d789e87a14420b23e9a0bb373a.png)
Input File: 01 Witness.mp3
Channels : 2
Sample Rate : 44100
Precision : 16-bit
Duration : 00:07:57.50 = 21057530 samples = 35812.1 CDDA sectors
File Size : 19.1M
Bit Rate : 320k
Sample Encoding: MPEG audio (layer I, II or III)
Comments :
Title=Witness
Artist=Urocyon
Album=Urocyon
Tracknumber=1
Year=2022
Genre=Black Metal



Register


Go to the top of the page
  Insert nick Quick quote
+Quote Post
 
Start new topic
Replies (1 - 2)
post Aug 7 2022, 21:35:35
Post #2

Маньяк
**********
Group: Металариец
Posts: 1,344
Releases: 0
On Forums: 13 years 5 months
Thanks: 435 time(s)
South Korea


Thank you, smysl!

Also, for those who are interested in FLAC (as well as 320 kbps and other types), the release is currently downloadable free on 'name your price' basis on the band's BandCamp page that smysl provided above!:


Go to the top of the page
  Insert nick Quick quote
+Quote Post
post Aug 8 2022, 09:31:35
Post #3

Group: Дух
Posts: 2
Releases: 0
On Forums: 4 years 2 months
Thanks: 0 time(s)
Unknown


Thanks. I like this one a lot.
Go to the top of the page
  Insert nick Quick quote
+Quote Post

Reply to this topicStart new topic
1 User(s) are reading this topic (1 Guests and 0 Anonymous Users)
0 Members:

 



- Lo-Fi Version Support form
Copyrights and abuse reports form
Time is now: 11th August 2022 - 09:18:21