Welcome Guest ( Log In | Register )

> Releases Upload / Добавление релизов

Добавить релиз тут / Click here to add release
Рекомендованные обменники / Recommended file shares

 
Reply to this topicStart new topic
> Varmint - Misanthropic Hymns Of Extinction [ep] (2022), Black/Death Metal
post Aug 6 2022, 04:01:57
Post #1

Правь статус, ####!111
**************
Group: Металариец
Posts: 3,200
Releases: 1709
On Forums: 11 years 8 months
Thanks: 33373 time(s)
Russian Federation


(IMG:https://metalarea.org/images/audiocovers/2022_Aug/acov_tid368004_thumb.jpg)

*Artist: Varmint
*Album: Misanthropic Hymns Of Extinction [ep]
*Year: 2022
*Genre: Black/Death Metal
*Country: Costa Rica (IMG:https://metalarea.org/forum/style_images/flags/Costa%20Rica.png)
*Format: mp3@CBR320kbps
*Size: 46MB

Tracklist:
1.Death Sentence 01:07
2.Boiling Hatred from Within 04:21
3.Fall of Mankind 04:33
4.Human Vamint 04:48
5.Misanthropic Hymns of Extinction 05:12
******************************
Total playing time: 20:01



Technical info
(IMG:https://metalarea.org/images/spectrogram/2022_Aug/89fa644d05cb5a0f1d75198c2de0dd13.png)
Input File: 03 Fall of Mankind.mp3
Channels : 2
Sample Rate : 44100
Precision : 16-bit
Duration : 00:04:33.29 = 12051869 samples = 20496.4 CDDA sectors
File Size : 11.0M
Bit Rate : 322k
Sample Encoding: MPEG audio (layer I, II or III)
Comments :
Title=Fall of Mankind
Artist=Varmint
Album=Misanthropic Hymns of Extinction
Tracknumber=03
Year=2022
Genre=Black/Death Metal



Register


Go to the top of the page
  Insert nick Quick quote
+Quote Post

Reply to this topicStart new topic
2 User(s) are reading this topic (2 Guests and 0 Anonymous Users)
0 Members:

 



- Lo-Fi Version Support form
Copyrights and abuse reports form
Time is now: 11th August 2022 - 09:00:05