Welcome Guest ( Log In | Register )

> Releases Upload / Добавление релизов

Добавить релиз тут / Click here to add release
Рекомендованные обменники / Recommended file shares

 
Reply to this topicStart new topic
> Decasion - Instilling The Decayed Obsession (2022), Death Metal/Hardcore
post Aug 6 2022, 05:35:44
Post #1

Правь статус, ####!111
**************
Group: Металариец
Posts: 3,200
Releases: 1709
On Forums: 11 years 8 months
Thanks: 33373 time(s)
Russian Federation


(IMG:https://metalarea.org/images/audiocovers/2022_Aug/acov_tid368005_thumb.jpg)

*Artist: Decasion
*Album: Instilling The Decayed Obsession
*Year: 2022
*Genre: Death Metal/Hardcore
*Country: Japan (IMG:https://metalarea.org/forum/style_images/flags/Japan.png)
*Format: mp3@CBR320kbps
*Size: 65MB

Tracklist:
01.Wicked Monarchism 03:08
02.Eternal Fears 02:10
03.Blasphemy 03:13
04.Playing the Victim 03:16
05.Laugh at Your Death 02:48
06.Redrum 03:01
07.Madretsma 02:31
08.Common Suffering 02:30
09.Hellish Sight 03:45
10.The Chainsaw Man 02:51
******************************
Total playing time: 29:13

(IMG:https://metalarea.org/images/youtube.png)

Technical info
(IMG:https://metalarea.org/images/spectrogram/2022_Aug/ae70e3358e29b185d90ad774708a8af6.png)
Input File: 02 - Eternal Fears.mp3
Channels : 2
Sample Rate : 44100
Precision : 16-bit
Duration : 00:02:10.78 = 5767354 samples = 9808.43 CDDA sectors
File Size : 5.63M
Bit Rate : 345k
Sample Encoding: MPEG audio (layer I, II or III)
Comments :
Title=Eternal Fears
Artist=Decasion
Album=Instilling the Decayed Obsession
Tracknumber=02
Year=2022
Genre=Death Metal/Hardcore



Register


Go to the top of the page
  Insert nick Quick quote
+Quote Post

Reply to this topicStart new topic
1 User(s) are reading this topic (1 Guests and 0 Anonymous Users)
0 Members:

 



- Lo-Fi Version Support form
Copyrights and abuse reports form
Time is now: 11th August 2022 - 09:44:34