Welcome Guest ( Log In | Register )

> Releases Upload / Добавление релизов

Добавить релиз тут / Click here to add release
Рекомендованные обменники / Recommended file shares

> Eidkameraden - Eidkameraden (2022), Black Metal
post Aug 6 2022, 05:56:05
Post #1

Правь статус, ####!111
**************
Group: Металариец
Posts: 3,200
Releases: 1709
On Forums: 11 years 8 months
Thanks: 33373 time(s)
Russian Federation


(IMG:https://metalarea.org/images/audiocovers/2022_Aug/acov_tid368006_thumb.jpg)

*Artist: Eidkameraden
*Album: Eidkameraden
*Year: 2022
*Genre: Black Metal
*Country: Switzerland (IMG:https://metalarea.org/forum/style_images/flags/Switzerland.png)
*Format: mp3@CBR320kbps
*Size: 86MB

Tracklist:
1.Prelude 01:26
2.Carried by His Tune... 04:10
3.Transcendental Elitism 04:14
4.Solitary Revelation 02:55
5.Unlocking Visions of Heritage 04:29
6.Interlude 01:29
7.Forges Alight by the Flame of Tradition 06:21
8.Beheading the Abrahamic Serpent 02:28
9.Under Oscillations of the Moon 03:46
10.Lycanthropic Terror 06:30
******************************
Total playing time: 37:48

(IMG:https://metalarea.org/images/youtube.png)

Technical info
(IMG:https://metalarea.org/images/spectrogram/2022_Aug/36245cd014a3b8587b65ffc2ff85c242.png)
Input File: 04. Solitary Revelation.mp3
Channels : 2
Sample Rate : 44100
Precision : 16-bit
Duration : 00:02:55.66 = 7746606 samples = 13174.5 CDDA sectors
File Size : 7.03M
Bit Rate : 320k
Sample Encoding: MPEG audio (layer I, II or III)
Comments :
Title=Solitary Revelation
Artist=Eidkameraden
Album=Eidkameraden
Tracknumber=04
Year=2022
Genre=Black Metal



Register


Go to the top of the page
  Insert nick Quick quote
+Quote Post
2 Pages V  < 1 2  
Start new topic
Replies (30 - 31)
post Aug 9 2022, 11:39:36
Post #31

Ледоруб
**************
Group: Металариец
Posts: 30,601
Releases: 0
From: Санкт-Петербург
On Forums: 12 years 10 months
Thanks: 10905 time(s)
Russian Federation


ЦИТАТА(Daale @ 9th August 2022 - 13:36:25) *
А ты смешной.

Нет. Он другое прилагательное.

Ага, ещё и сообщения трёт. Вполне в духе того, за кого он тут заступался.
Go to the top of the page
  Insert nick Quick quote
+Quote Post
post Aug 9 2022, 13:28:02
Post #32

Мегаманьяк
***********
Group: Металариец
Posts: 1,665
Releases: 14
From: Москва
On Forums: 14 years 4 months
Thanks: 1044 time(s)
Antarctica


ЦИТАТА(Daale @ Aug 9 2022, 14:36:25) *
А ты просто собиратель мп3шек. Так что...

Вот это ЧСВ. С каждым разом всё больше и больше, поразительно.

Группа вроде неплохая, но стандартная до ужаса. Им бы чутка безумия добавить, характерного для швейцарцев, но нет.
Go to the top of the page
  Insert nick Quick quote
+Quote Post

2 Pages V  < 1 2
Reply to this topicStart new topic
2 User(s) are reading this topic (2 Guests and 0 Anonymous Users)
0 Members:

 



- Lo-Fi Version Support form
Copyrights and abuse reports form
Time is now: 11th August 2022 - 09:21:29