Welcome Guest ( Log In | Register )

> Releases Upload / Добавление релизов

Добавить релиз тут / Click here to add release
Рекомендованные обменники / Recommended file shares

 
Reply to this topicStart new topic
> Agressor - The Arrival [compilation] (2021), Death/Thrash Metal (D)
post Aug 6 2022, 07:07:51
Post #1

Правь статус, ####!111
**************
Group: Металариец
Posts: 3,200
Releases: 1709
On Forums: 11 years 8 months
Thanks: 33373 time(s)
Russian Federation


(IMG:https://metalarea.org/images/audiocovers/2022_Aug/acov_tid368007_thumb.jpg)

*Artist: Agressor
*Album: The Arrival [compilation]
*Year: 2021
*Genre: Death/Thrash Metal
*Country: France (IMG:https://metalarea.org/forum/style_images/flags/France.png)
*Format: mp3@VBR291kbps
*Size: 266MB

Tracklist:
1.Paralytic Disease 02:48
2.The Unknown Spell 02:17
3.Elemental Decay 04:44
4.Voices from Below 03:18
5.Bloodfeast 02:28
6.Neverending Destiny 03:38
7.Prince of Fire 03:35
8.Dark Power 05:47
9.The Arrival 02:35
10.Brainstorm 02:54
11.Bloody Corpse 04:38
12.Prince of Fire (rought mix) 03:38
13.The Arrival (rought mix) 02:38
14.Paralytic Disease (rought mix) 02:52
15.The Unknown Spell (rought mix) 02:21
16.Dark Power (rehearsal 1988) 06:47
17.Bloody Corpse (rehearsal 1988) 05:40
18.Voices from Below (rehearsal 1988) 03:21
19.Elemental Decay (new version) 04:49
20.Neverending Destiny (new version) 03:51
21.Intro 00:58
22.Primeval Transubstantation 04:00
23.The Forteress 03:56
24.Positonic Showering 04:02
25.Antediluvian 03:12
26.Epileptic Aura 03:06
27.Hyaloïd 03:59
28.The Crypt 03:46
29.Future Past 02:02
30.Eldest Things 05:22
31.Turkish March 02:02
32.Primeval Transubstantation (rought mix) 04:04
33.Epileptic Aura (rought mix) 03:06
34.The Crypt (rought mix) 03:45
35.Hyaloïd (new version) 02:39
36.Antediluvian (new version) 03:12
******************************
Total playing time: 2:07:50

Extended info
Remastered CDs of 'Towards Beyond' including (re-recorded) bonus tracks and 'Neverending Destiny' including (re-recorded) bonus tracks.
Scene CD Rip


Technical info
(IMG:https://metalarea.org/images/spectrogram/2022_Aug/f22d4ead28a2e2ff396960c5458c8b9c.png)
Input File: 102-agressor-the_unknown_spell.mp3
Channels : 2
Sample Rate : 44100
Precision : 16-bit
Duration : 00:02:16.91 = 6037599 samples = 10268 CDDA sectors
File Size : 4.78M
Bit Rate : 279k
Sample Encoding: MPEG audio (layer I, II or III)
Comments :
Title=The Unknown Spell
Artist=Agressor
Album=The Arrival
Tracknumber=2/20
Year=2021-00-00
Genre=Death Metal
Discnumber=1/2



Register


Go to the top of the page
  Insert nick Quick quote
+Quote Post

Reply to this topicStart new topic
2 User(s) are reading this topic (2 Guests and 0 Anonymous Users)
0 Members:

 



- Lo-Fi Version Support form
Copyrights and abuse reports form
Time is now: 11th August 2022 - 09:35:40